<?xml version="1.0" standalone="no"?>
<!DOCTYPE svg PUBLIC "-//W3C//DTD SVG 1.1//EN" "http://www.w3.org/Graphics/SVG/1.1/DTD/svg11.dtd" >
<svg xmlns="http://www.w3.org/2000/svg">
<metadata>
This is a custom SVG webfont generated by Font Squirrel.
Copyright   : Copyright Christoph Mueller 1997
</metadata>
<defs>
<font id="webfontxmFwWeEV" horiz-adv-x="570" >
<font-face units-per-em="1000" ascent="800" descent="-200" />
<missing-glyph horiz-adv-x="500" />
<glyph unicode=" "  horiz-adv-x="500" />
<glyph unicode="&#x09;" horiz-adv-x="500" />
<glyph unicode="&#xa0;" horiz-adv-x="500" />
<glyph unicode="!" horiz-adv-x="253" d="M29 662q-3 67 1 77q2 7 31.5 32t38.5 26q16 2 38 -11q2 -5 9 -12q8 -2 23 -9q6 -4 16 -25.5t10 -30.5q-3 -8 -5 -24q5 -6 11 -17q4 -21 -3 -53l-8 -12q-5 -25 5 -30q1 0 -5 -8q1 -17 0 -48q-3 -2 -6 -5v-6q8 -24 11 -24q2 0 -8 -15v-14l32 -9q2 -4 6 -9l-6 -6 q-5 -2 -13 0l-11 3l-3 9q-5 2 -9 2q-10 0 -10 -13q0 -10 5 -22l9 -6q-5 -25 -15 -70q-1 4 -3 -6l6 -6q2 -7 -6 -38q-1 -3 -17 -17.5t-18 -15.5q-3 0 -16.5 2.5t-15.5 3.5q-2 5 -6 12q-8 4 -18 15q-11 28 -8 70q0 4 4.5 16t3.5 20q-4 5 -8 12q-8 23 -6 44q0 1 4.5 10.5 t4.5 12.5q-10 11 -21 33q-1 7 2 22.5t3 22.5q0 8 -2 14q-5 1 -11 6.5t-10 18t-6 78.5zM33 84q-2 11 3 20q4 6 8 13v8l6 3q9 25 26 39q2 4 6 9q6 -1 15 0q1 2 3 8q5 2 14 3q18 4 30 0l14 -14h9q2 -4 6 -9q15 -4 35 -18l6 -41q6 0 15 -3q0 -7 5 -15v-6q-4 -2 -8 -6v-11l8 -12 q-16 -5 -38 -18q0 -6 -3.5 -17.5t-37.5 -17.5q-59 -11 -81 6q-5 3 -7.5 12.5t-4.5 13.5q-7 5 -15 12q-1 9 -6 29q-4 5 -8 12zM182 352q3 9 4 9.5l5 2.5q21 -3 21 -7q0 2 -7 -16q-4 1 -23 11zM205 523q2 8 3 18q4 0 9 3q16 -10 16 -12q0 1 -10 -15h-12zM245 56q0 4 7 5 q19 1 19 -11q0 -4 -7 -4q-19 -1 -19 10z" />
<glyph unicode="&#x22;" horiz-adv-x="409" d="M36 697q-5 14 0 25l4 2q-3 15 -2 48q0 1 7.5 14.5t8 14.5t24.5 6t25 5q26 3 41 -11q0 -5 2.5 -11t16 -12t21.5 -4l7 9h7q6 4 16 9q8 0 24 2q16 8 48 18q11 1 26 -6q10 -6 21 -12v-9l20 -11l11 4q1 -2 5 -9l4 -2q5 -12 0 -25l-4 -2q3 -3 2 -16q0 -1 -7 -9t-6 -13 q5 -4 11 -12q2 -4 2 -9q0 -4 -5 -13.5t-4 -19.5l4 -16q3 -12 1 -18q-11 -5 -23 -14q0 -8 -2 -22h-5q-2 -12 -2 -13q0 -4 9 -7q3 -2 11 0l3 -7q-5 -4 -14 -9h-9q-9 -6 -13 -61q-40 -13 -39 -13q-10 0 -27 13h-4q-2 3 -5 9h-4q-3 5 -2.5 16.5t-2.5 17.5h-4q-11 4 -14 11 q1 4 0 11q3 1 6.5 4t7.5 5v9l-2 5q0 6 -3 18q-5 5 -11 13q-1 7 6.5 16.5t7.5 16.5q0 6 -3 12q-5 3 -13 12q-3 6 0 20q-2 6 -4 13q-2 2 -11 4.5t-14 2.5q-10 0 -12 -10q-4 -17 -6 -20t-14 -8l-5 -25q4 -1 12 -4q-4 -3 -7 -7q1 -5 2 -16q-2 -8 -7 -25q4 -1 6 -2t3 -9 q-2 1 -6 -11h-5q0 -2 5 -7q1 -9 -5 -18q-7 -3 -16 -11q-1 -4 3 -25q-9 -3 -23 -11q0 -2 -2 -7q-5 -8 -25 -11q-10 10 -25 34q-10 24 -6 63l2 7.5t2 12.5q0 1 -2 9t-2 9q0 2 3 17t1 23l-7 7q0 11 -6 25q1 1 2 4q-5 6 -11 16zM162 722q1 -2 2 -9h7q1 0 11 -7q7 0 17.5 5.5 t11.5 10.5v38l-16 6q-11 4 -18 3q-4 -2 -13 -6q0 -1 2 -12l7 -2v-4q-1 3 -2 -7q4 -4 4 -5h-4q-2 -5 -7 -11h-2z" />
<glyph unicode="%" horiz-adv-x="597" d="M10 487q2 10 6 34h5q-1 11 2 33q1 2 40 30q-3 25 -2 29q4 16 43 33q5 1 16 5l6 9q5 1 16 4l2 5q13 3 25 0q4 -5 11 -9q23 -5 49 4l12 7q5 0 17 2q1 3 3 7q7 2 20 9q1 4 4 9q6 1 16 4q3 9 13 21q4 2 16 2q7 0 11 2q6 12 16 29q4 1 14 5q1 4 6 11h7q3 4 9 9q11 -3 31 -5 q5 3 16 11h11q2 6 7 12q3 -1 7 0q-1 2 2 6q1 -4 4 -11q6 -1 14 -7q0 -4 4 -13q4 -2 7 -4q-2 -2 -2 -7q3 -4 6 -9q3 -14 -3 -19t-10.5 -10.5t-5 -21t-3.5 -21.5l-16 -11q-12 -15 -6 -52q-2 -2 -5 -4q-3 2 -11 2q-1 0 -9 -6t-9 -7v-9q-2 -10 -9 -20q-7 -6 -18 -18q1 -7 -2 -21 q-8 -4 -18 -17v-16q-3 -5 -7 -11q1 -9 -2 -29l20 -12v-2q12 -2 52 9l24 7l3 -5q15 1 44 -2q3 -4 9 -9q5 0 14 -2q5 -3 8 -11q5 -13 5 -14q5 -7 23 -15q-3 -22 2 -30l4 -2q-1 -9 0 -25q5 -2 9 -8q0 -1 -11 -39q-7 -23 0 -35q-9 -5 -20 -14q3 -12 2 -13q-6 -7 -13 -18v-14 q-16 -4 -23 -9q-4 -9 -15 -24q-5 -4 -18 -5.5t-18 -3.5q-7 -7 -20 -16q-10 -3 -38 -1q-26 1 -32 3v3q-4 1 -13 6q-1 2 -2 7q-5 0 -14 2q-4 6 -13 14q-5 0 -16 4q-3 4 -9 9h-2q2 6 0 23q-8 6 -16 13q0 2 4 14.5t5 14.5h7l2 7h4q-1 13 0 13q-7 5 -15 14q0 -1 4 18h5q1 6 4 20 l2 2q-2 6 -8 13q-2 1 -21 -4v-9q-6 -4 -15 -13q-3 -6 -1 -14q2 -6 1 -7v-2q-3 1 -7 0q-2 0 -11 -9.5t-9 -10.5q-2 -7 0.5 -20.5t-0.5 -22.5q-3 -1 -7.5 -5t-10.5 -15q-3 -1 -9 -4q0 -3 -2 -7h-3q-1 -4 -1 -8t3 -12.5t1 -15.5q-8 -4 -18 -13v-7q-4 -3 -7 -7q1 -7 2 -18 q-5 -4 -13 -13q-1 -4 -5 -13l-4 -3v-15q-3 -5 -7 -14q3 -1 9 -4q3 -2 9 -5v-7q-9 -1 -27 -4q0 -6 -2 -20q-3 -1 -7 -2q0 -3 -2 -7q-3 0 -9 -2q-3 -5 -7 -9h-9q-6 -11 -15 -25q-6 -4 -15 -4q-30 0 -39 22v9q-1 5 0 9q3 4 9 13q0 13 6 36q6 4 12 9q-1 3 0 9q4 4 9 11 q-1 4 0 11l13 34q6 2 14 7q2 8 9 24q4 2 10 11q-1 4 1 12q7 8 11 11h7q-2 22 2 25q4 0 11 4q1 10 2 27q2 0 6 3t8 2q0 -1 1.5 -4.5t5.5 -2.5v7q5 0 13 4q0 4 2 11l7 7q1 4 -14 22h5q1 7 7 21q2 0 6 2l12 20q-3 6 -3 20q5 4 12 11q4 12 13 34q-10 9 -20 8l-25 -6q0 -1 -4 -2 q1 -3 2 -11q-2 -7 -22 -18.5t-30 -13.5q-7 2 -22 3q-10 -2 -20 -3q-15 -2 -23 0q-5 7 -15 16q-4 0 -11 2q-2 3 -5 7q-6 0 -16 2q-1 6 -4 16l-5 2q-18 47 -15 65zM62 503q0 -9 1 -18q-1 -11 0 -27h7q0 -3 2 -9h5q2 -4 7 -9q1 0 22 -2q3 0 14 2v5q4 0 11 4q0 5 4 14q8 1 20 6 q1 3 3 7h4v4l11 9q1 3 -2 23q9 5 18 11q-1 4 0 9q4 -1 11 0q1 1 7 13q-4 3 -4.5 8t-2.5 6q-4 -1 -11 0l-9 11q1 7 2 16q-1 5 -12.5 12t-20.5 6l-5 -5q-8 0 -24 -4q-4 -6 -12 -14q-4 -3 -33 -9q-13 -49 -13 -69zM241 456l2 -5q5 1 2 3h1q-3 2 -5 2zM252 483h6q-2 0 23 6v5h7 q0 2 3 6t8 10q-2 15 2 44q4 1 9 3q0 2 2 6q5 1 14 3q-8 17 -7 20q2 2 4 7q7 -1 7 0q-1 5 -2 15q6 3 18 7q-12 16 -25 13q-6 -6 -20 -13q-3 0 -6.5 3t-4.5 4q-3 0 -23 -5q1 -4 -2 -9h-4v-15l11 -7q-5 -6 -16 -18q1 -3 5 -7v-4q-2 -1 -5 -3q3 -32 2 -33q-2 -1 -6 -2 q2 -19 0 -36zM394 272q0 -4 11.5 -12t36.5 -8q1 6 2 16q8 4 16 11q1 5 5 15l13 15.5t5 18.5q-9 8 -23 22v5q9 5 9 6q0 -2 -11 5q-2 -3 -5 -7q-4 1 -13 -2q-2 -1 2 -7h-4q-1 -3 -5 -8q-6 0 -20 -3q-7 -3 -7 -6q0 -9 25 -16v-7q-7 -3 -2 -18q-1 -3 -5 -9q-1 -1 -15.5 -3.5 t-14.5 -7.5zM587 307q0 4 5 3q5 0 4 -4q-2 -4 -1 -5q-6 1 -3 2q-5 0 -5 4z" />
<glyph unicode="&#x26;" horiz-adv-x="782" d="M18 218q-2 13 0.5 23t16 20t13.5 11q-2 13 0 37q5 2 11 6q1 7 6 21q5 1 11.5 7t9.5 37q10 3 29 11q2 4 6 9q3 -1 9 0v3q9 5 10.5 10t6.5 19q2 4 27 30q22 22 23 31q1 12 -12 29t-15 24q0 20 -5 67q-1 2 -8 15q-5 10 -4 20l12 26q-1 6 0 15q3 0 8 3q1 1 6 17q-1 11 0 30 l15 11q0 5 3 12h8q4 5 12 12q9 -2 29 3q2 3 6 8h9q2 5 7 8t25 7q9 1 40.5 -6.5t38.5 -11.5q3 -5 9 -11q15 0 38 -12q0 -8 5 -26q7 -6 18 -18q3 -14 12 -38q4 -1 11 -5q-10 -34 -8 -44q1 -3 3.5 -7t1.5 -8q-11 -15 -23 -44q0 -5 3 -20q2 -11 -3 -21q-4 -1 -9 -2q0 -6 -6 -18 q-7 -3 -17 -12q0 -6 -3 -14q-6 -1 -15 -3v-6q-7 -3 -16.5 -0.5t-15.5 0.5v-3q-8 -4 -41 -32v-12q-2 -19 0 -26q2 -5 16 -14t17 -12q-1 -4 0 -9q3 -9 14 -15v-3q10 1 35 3q0 5 2 24q1 12 -1 19.5t-10 12.5q4 1 3 6q23 2 65 11q-27 14 -27 30q0 9 12 17q12 2 32 12q1 7 7.5 19 t18.5 16q15 -1 44 0l21 9q8 0 31 -8t30 -13q22 -15 26 -26v-9q10 -2 26 -9q4 -3 5 -11q1 -6 0 -12t-2 -3q1 -8 6 -29q-6 -13 -6 -27q0 -6 3 -5q-4 -1 6 -3v-9q-3 -4 -9 -9q-7 0 -23 -3q-9 -5 -26 -11q-7 -1 -22 5q-18 6 -22 6q-6 -1 -18 0q-2 6 -12 13q-3 0 -11 2 q-2 4 -9 12q-10 7 -32 8v-5q-12 -8 -14 -18q3 -3 3 -9l-6 -3q2 -1 3 -8q-3 -4 -5 -7q-4 -6 -4 -8t3 -4.5t3 -4.5q-7 -6 -15 -17q3 -19 0 -41q17 -6 17 -7q3 -8 6 -17q-13 -5 -26 -14q6 -26 9 -36q9 -27 18 -30q7 1 23 -1q2 -1 2 -7q0 -5 -2 -5q21 -3 41 -3q2 11 11 26 q3 2 28 10q16 4 18 18q1 11 48 16q1 -3 3 -6q8 -4 17 -19t15 -19q15 -4 44 -14q-5 -7 -3 -9l-32 -17v-12q20 -4 52 -12l-3 -11h-41q-1 -3 -2 -4.5t-12 -4.5q2 -4 6 -9q6 1 17 0l15 -9q-4 -14 -3 -14h-62q-4 -3 -7.5 -13.5t-6 -13t-19 -10t-19.5 -7.5q-5 -1 -15 1q-6 1 -11 2 q-17 -5 -53 -6l-9 9q-7 -1 -20 0q-6 4 -18 11h-11l-9 9q-10 0 -29 6l-29 26v6h-6l-15 -12q-4 1 -9 0q-5 -9 -14 -20q-6 0 -18 -3v-6q-3 -8 -23 -14q-10 0 -29 -3v-6q-7 -3 -15 -6q1 0 -44 3q-16 -3 -52 -3q-16 5 -41 12q-7 -1 -21 3q-7 10 -17 23q-6 2 -18 9q-2 4 -8 11 q-6 1 -18 6l-12 21q2 3 3 8l-17 15q-2 10 -9 32l-12 12q1 5 0 14q-4 8 -8 18q1 3 3 15q-2 9 -4 19zM88 242q4 -34 4 -38q-5 0 -3 -1q1 -1 3 -2q3 -1 0 -2q-2 0 3 0q-2 -5 -3 -9q7 -4 17 -9v-3q1 0 -3 -3q0 -7 -3 -26q8 -10 24 -23q8 -6 21 -6h17q8 -6 20 -12q9 1 26 0l9 -6 q7 -1 17.5 1.5t17.5 1.5q1 0 10 -5.5t16 -3.5v6q1 1 10 9t11 9h3q1 8 9 23q6 3 20 12v6q10 5 29 17q1 7 0 21l-6 2q-5 6 -14 21q-1 6 -3 17q-1 1 -24 41q-10 2 -29 15q0 5 -3.5 14.5t-28.5 26.5l8 12t1 14q-6 15 -21 15h-2q-10 -1 -26 -12q-21 -13 -24 -15q-4 1 -12 0 q-4 0 -25 -10t-23 -12.5t-4 -6.5q-10 -13 -24 -29h-3q1 -3 0 -9q-4 -2 -8 -6q-6 -15 -4 -35zM229 616q-5 -33 3 -50h3q6 -3 12 -18.5t11 -19.5q12 -3 35 -11q2 4 6 11h6q0 8 6 18q6 0 17 3q13 8 29 47q-10 4 -23 17v9l3 3q11 11 12 14q0 4 -3 15q0 3 3 6q3 -9 8 -26h6 q5 -7 9 -15l6 3q-1 6 0 17q0 6 3.5 14t3.5 12q0 7 -10 15q-9 3 -21 9q-1 6 -5 18q-6 2 -18 8q-1 1 -3 9q-3 2 -14 0v-3q-4 0 -12 -3v-6q-7 -2 -16 1t-13 2q-8 -1 -24 -18.5t-17 -24.5q-2 -8 2 -18t4 -15q-5 -9 -9 -23zM337 689q-3 8 3 9q4 0 6 -2t1 -3q-2 -2 -7 -1 q5 0 -3 -3zM521 200q0 -3 20 1q8 7 9 6q6 -1 5 -9l-2 -8q-7 1 -23 6q-8 2 -9 4z" />
<glyph unicode="'" horiz-adv-x="238" d="M29 691q-1 23 0 28q5 6 12 18q0 7 4 21q7 2 17 8q1 7 6 18q1 2 20.5 9.5t22.5 7.5q5 -4 14 -9q3 2 10 2q3 -3 7 -8q12 -5 28 -14q3 -9 11 -27q3 -3 8 -10q-1 -3 0 -8q5 -6 12 -19q-2 -6 -2 -22l4 -4q1 -3 6 -27l-6 -4q1 -5 0 -13q-9 -9 -22 -24q2 0 -2 -4q2 -7 2 -23 q-4 -3 -9 -10q-2 -11 7.5 -25l9.5 -14q1 -13 -17 -29q2 -1 1 -10q-2 -9 -4 -10t-9 -4q-6 -11 -20 -25q-9 -4 -22 -4q-38 0 -50 16q-21 27 -15 76q3 8 2 10q-3 4 -6 9q-2 26 -8 55q1 1 2 4q-5 8 -10 17q3 4 4 18q-3 2 -5 5t-3 25z" />
<glyph unicode="(" horiz-adv-x="263" d="M6 334q0 4 2 14.5t2 12.5q3 42 2 47q-2 3 -4 8q3 17 4 43h-2v11l-4 2q-4 19 0 39q5 6 10 18q4 17 7 34q5 23 12 28l-4 10q7 8 18 23v6q3 1 5 3t4 15q-1 5 0 13q4 2 10 8v8l6 8q3 7 0 29q12 3 27 12q-1 4 2 10q9 3 22 11q0 2 2 8q11 17 39 27l2 2q1 3 2 11q1 4 9 5 q7 1 22.5 -5.5t20.5 -10.5q0 -4 2 -9q4 -1 10 -6v-4h-4v-8l-6 -2q-1 -18 0 -21q-10 -6 -27 -10q1 -4 0 -12q-3 -3 -8 -6v-7q-2 -2 -2 -6q2 0 6 -2q0 -3 2 -10q-15 -2 -37 -10v-4q2 1 2 -6q-2 -2 -8 -5v-4q-6 0 -12 -2q-1 -1 -3 -14.5t-2 -16.5l9 -12q-16 -11 -29 -16 q1 -20 2 -15q-4 -5 -4 -6l12 -14l-6 -2q1 -3 0 -8l-14 -9q2 -7 2 -8q-5 -3 -10 -10q-1 -2 1.5 -8l2.5 -6v-31q-7 -4 -15 -12q-2 -6 -4 -17q-3 -24 -2 -35q3 -4 6 -10q-2 -4 0 -10v-4l-4 -2q-5 -13 -2 -23q5 -4 10 -10q-2 -4 -4 -13q0 -1 2.5 -6t1.5 -8q0 -1 -6 -10 q0 -8 5 -12.5t10 -8.5q1 -6 6 -18q4 -3 12 -8q-4 -14 -4 -15q3 -3 6 -8q1 -3 -2 -12q0 2 4 -13q-3 -2 -1 -14q1 -10 3 -14h4q1 -4 4 -8q9 -4 23 -13q4 -8 12 -22q7 -5 19 -17q1 -4 6 -10q3 -1 8 -4q0 -3 2 -8q8 -2 21 -11q0 -4 4 -12q3 0 7.5 -2t23.5 -35q0 -8 -9 -14 q-3 -2 -14 -8h-8l-13 -11v-4q-3 0 -9 -3t-11 -7t-14 -2q-6 1 -10.5 8t-6.5 8q-5 2 -14 7q-2 5 -8 14q-12 7 -31 25q-1 4 -4 14q-5 3 -11 12q1 4 0 10q-7 6 -18 19q-8 18 -4 35l2 2.5t2 3.5l-4 2q0 4 -2 14q-10 7 -25 23q0 6 -4 18q-4 3 -8 9q2 8 0 28l-10 15q0 4 -2 14 q-2 1 -5 2q-7 12 -8 33q2 4 2 14z" />
<glyph unicode=")" horiz-adv-x="265" d="M6 58q5 5 11 13q0 4 2 12q2 5 12.5 9t12.5 6q6 7 19 21q3 0 8 4q0 11 8 29h6q2 0 30 15v10l-5 2q2 0 -2 13q1 0 17 10v6l-4.5 6.5t-1.5 10.5q8 15 21 37l2 11q-1 -5 -2 6q3 6 6 15q-2 6 -2 23q4 4 8 12q5 21 2 33l-4 7q0 4 2 9l2 5q-1 7 -2 21q3 13 6 31q3 21 -6 40 q-3 2 -6 6q0 2 2 8t2 7q1 11 0 14q-3 3 -6 7q2 6 0 23q-3 1 -5 4t-4 10l-4 2q-1 6 -6 19l-4 2q-1 2 2 13q-1 12 -6 27q-7 5 -17 16q0 6 -4 17q-4 1 -6.5 4.5t-6.5 12.5q-2 0 -4.5 3.5t-7.5 12.5q-5 3 -13 11q1 5 -2 14q-7 4 -16 11q-2 1 -15.5 19.5t-14.5 19.5q0 4 1.5 18 t3.5 16h2q4 0 9.5 3.5t8.5 4.5q26 4 48 -10q7 -4 12 -15t8 -13.5t7 -5.5q4 -7 13 -21q7 -4 15 -10q0 -4 4 -12q3 -2 6 -5v-6q3 0 6 -2v-10q5 -6 11 -15q-1 -4 0 -10q3 -13 33 -36q-5 -19 0 -27q4 -1 8 -4q-1 -5 -2 -17q3 -4 6 -10q-1 -4 -2 -11q1 -3 15 -10q0 -1 2 -4 q-5 -6 -10 -17v-27l29 -19v-6l-15 -10v-30q5 -3 17 -12q1 -5 0 -15q-4 -1 -8 -6q-1 -3 3.5 -8.5l4.5 -5.5l-6 -15q-1 -2 0 -6q3 -1 8 -4q0 -4 2 -11q-8 -3 -17 -10v-4q2 -3 7 -5.5t18 -5.5v-4q-2 -1 -6 -2q3 -1 -6 -4q-1 3 -4 6h-2q-9 -7 -9 -10q0 -4 19 -9v-10 q-7 -1 -17 -4q0 -4 -2 -9h-2q1 -1 4 -10q-4 -7 -12 -15q-3 1 -6 0q0 -2 4 -8q1 -3 5 -4.5t14 -3.5q0 -3 2 -7q-3 0 -7 -2q-3 1 -10 0q-2 -3 -4.5 -4.5t-8.5 -3.5q0 -15 -2 -39q-1 -5 -2 -9q-3 -12 -8 -19q-4 0 -8 -4q1 -4 2 -10q-3 -2 -7 -7q-5 0 -5 -3l1 -5q4 2 11 4v-6h-4 q1 -14 -3 -37q-3 -2 -8 -7q-1 -9 -10 -23q-8 0 -21 -8q-2 -7 -6 -17q-8 1 -23 -2q-3 -2 -7 -6q-7 -2 -22 -10q-7 -6 -15 -11.5t-21 -5.5q-27 0 -35 19q-1 7 -4 23q-7 17 -7 16z" />
<glyph unicode="+" horiz-adv-x="431" d="M32 416q0 12 18 20q12 0 41 2q26 3 20 3q1 0 7 -2t10 -1l7 7q6 -1 14 -2q4 0 20 8v7q2 5 4 19q-1 0 -4 2q1 2 -1 6q-2 2 3 11q7 16 7 30q-2 11 -4 28q3 3 6 8q-1 3 0 7l3 2q8 17 26 20q2 -1 5 -3q1 -5 6.5 -10.5t13.5 -10.5v-7q3 -4 7 -12h5q3 2 4 3q0 1 1 0q3 -2 5 -4 q0 -4 -1 -12q-5 -1 -12 -4q-1 -1 0.5 -5t-0.5 -7q-1 -6 0 -8q0 -9 3 -26l5 -10q-1 -4 2 -15q2 -1 5 -2q4 -5 12 -12q5 -2 29 -5q18 3 53 2q25 -6 46 -21q1 -1 1 -3q-5 -2 -7 -12q-3 -13 -4.5 -14t-5.5 -3v-3q-5 -5 -12 -9q-6 0 -22 -2l-5 -3q-3 -1 -39 -3q-19 1 -49 0v-4 l-6 -3q8 -16 9 -33v4q6 0 20 1q-2 -1 -5 -3v-5l-20 -5q-2 -3 -5 -9q-6 -8 -5 -18q3 -1 10 -4q1 2 5 5q3 -6 5 -15q-1 0 -3 -2t-11 -3q1 -5 1 -11q1 -2 8 -6q-2 -1 -4.5 -2.5t-5.5 -2.5v-4l-16 -17q-3 -1 -10 -5q-1 -2 -3 -5q-1 0 -26 5q-4 0 -12 2q-4 2 -8 14l-5 15l-4 2 q-2 10 -1 23l3 2v10h3q1 6 0 7q-6 4 0 22q-4 3 -3 12l3 4q6 20 -3 32h-3q-3 2 -6 5q-7 -1 -20 0q-5 3 -15 7q-3 0 -10.5 -1.5t-10.5 -2.5q-1 0 -7 2l-6 2h-32q-12 2 -20 17l-3 3q-1 6 -1 11z" />
<glyph unicode="," horiz-adv-x="386" d="M68 127q5 6 11 19q-1 9 2 24q4 2 11 7q1 5 7 18q4 6 12.5 8.5t17.5 4.5q16 5 16 11q0 4 -5 8q3 3 7 5q7 -2 22 -2l2 6q14 11 31 11q9 1 24.5 -5.5t19.5 -11.5q2 -8 8 -20q9 -5 25 -15l19 -20v-5q5 0 13 -4q2 -3 5 -9q-4 -2 -2 -13q7 -8 4 -11q-5 -4 -5 -16q0 -17 -2 -21 l-4 -4q2 -11 2 -33l-6 -21q-4 -11 0 -21v-4l-27 -25q-2 -5 0 -24q-18 -24 -24 -26h-4q-1 -5 -5 -15q-9 -20 -24 -29q-9 -1 -26 -6q-2 -6 -7 -14q-3 1 -8 0q-3 -4 -9 -8q-9 -3 -37 4q-14 1 -36 9q-1 1 -6 32t-4 36l4 2q0 5 2 13h4q6 8 20 20v2h9l18 13q1 5 0 16q-3 2 -7 6 q0 5 -2 15q-15 12 -35 33v9q-9 9 -22 24q-1 6 -5 20q-4 6 -4 7z" />
<glyph unicode="-" d="M41 407q-10 56 4 65h10l2 4l35 23q15 -3 45 -4q3 1 7.5 3t9.5 1t15 -10t17 -9l5 5q6 3 6 5q0 1 -3 3t-3 4q0 5 2 8q-5 0 2 2q9 2 10 -4v-12l8 -4q6 -1 15.5 4.5t15.5 5.5l6 -4q6 -2 13 1t12 3q7 -3 18 -6q13 1 41 2q12 -3 15 -2q6 3 14 6q4 0 11 -3l7 -3q8 1 21 2 q4 -5 10 -11q8 -2 21.5 2.5t21.5 2.5v-2q7 -3 21 -11l2 -4q7 1 20 -2l25 -41l6 -4q1 -4 -1.5 -8l-2.5 -4q1 -2 2 -9h2q0 -3 -2 -10q-1 -2 -18 -19t-19 -18q-12 -6 -34.5 -6.5t-43.5 -1.5q-1 0 -13 -2.5t-18 -1.5l-7 3t-9 3q-3 -3 -8 -6q-1 0 -27 4q-8 -2 -27 -2q-3 0 -9.5 3 t-10.5 3q-5 -1 -10 -3q-9 -2 -15 -1q-6 3 -14 6q-4 -1 -14 -2q-8 3 -19 6q-3 0 -13.5 -4t-11.5 -4q-4 0 -15.5 4t-14.5 4q-7 1 -45 -2q-27 -2 -42 4q-1 3 -4 6q-20 16 -24 42z" />
<glyph unicode="." horiz-adv-x="338" d="M44 95q0 2 10 10q0 7 2 21q7 4 17 14q0 3 2 10h2q8 9 25 23q9 1 25 6q0 2 2 7q7 12 25 12q8 0 13 -3.5l9 -6.5q12 -1 35 -7q6 -8 17 -20q13 -3 35 -15q1 -4 4 -14q6 -4 15 -13q0 -7 4 -24q4 -4 8 -9q6 -21 -6 -39q-3 -1 -8 -4q-4 -8 -13 -21q-7 -3 -16 -10q-3 -8 -9 -17 q-9 -1 -24 -6q-3 -4 -9 -10q-18 -14 -35 -15q-6 2 -23 2q-11 -2 -14 -2q-15 3 -56 33q0 3 -2 7q-4 1 -10 6q-1 9 -6 25q-5 3 -11 10q-2 6 1 10q5 8 5 9v4q-2 2 -8 12.5t-6 14.5z" />
<glyph unicode="/" horiz-adv-x="550" d="M22 32q0 3 10 16v17q3 5 6 12v11h3q4 2 8.5 13t7.5 14q10 3 23 14q0 10 4 29q8 8 19 23q0 4 2 13q3 4 8 10q1 5 4 19l4 2q1 6 5 18q7 6 16 17v4q7 3 17 13q2 9 8 27q3 3 8 10q2 7 9 21q2 1 6 4q5 14 19 41q10 10 22 25v7q3 0 7 2q0 4 4 14q4 4 9 13.5l16 30.5q5 5 12 14 v8l13 13q-1 2 0 6l4 2q1 5 4 15h4q0 8 4 25q6 3 13 8q2 11 8 31q6 5 17 15q5 6 9.5 20.5t9.5 19.5t14 16q-1 5 2 16l12 6l6 15l17 10h13q5 9 14 21q6 0 17 4q-2 3 -2 6q2 3 8 17l4 2l8 -2q0 -5 2 -14h5q9 -4 9 -7q0 2 -5 -10q-6 -1 -17 0q-2 1 -3 3q-4 2 -7 1l-6 -6 q1 -5 6 -15q3 0 8 -2q0 -2 -2 -6h-6q-4 -17 -4 -14q0 -1 2 -5t2 -6l-21 -27q-1 -5 -6 -23q-4 -4 -9 -10q0 -2 5 -17q-23 -17 -34 -45l-4 -2q0 -4 -2 -11q-4 -2 -8 -8q0 -2 4 -17q-14 -4 -15 -5q-5 -3 -8 -15l-4 -5v-6q-5 -3 -10 -10q1 -6 0 -17q-4 -1 -9 -4q1 -4 0 -10 q5 -4 11 -11q-1 -2 0 -6q-30 -2 -29 -2q-1 -5 -4 -14q-6 -4 -15 -13q0 -5 -2 -14q0 -1 -17 -17q2 -4 7 -21q-9 -5 -21 -14q-1 -4 -4 -13q-5 -3 -15 -10v-4q1 -14 -2 -27q1 -3 0 -9q-3 -1 -5 -4.5t-5 -11.5q-4 0 -11 -2q-1 -5 -4 -13q-6 -4 -14 -12q0 -4 -2 -13q-4 -4 -9 -12 v-2q4 -2 4 -11v-10q-1 -3 -6 -8q-7 0 -18 -4q-1 -4 -5 -13q-5 -4 -14 -10q3 -20 -2 -23v-8q12 -11 12 -14q0 -4 -10 -13q-14 2 -19 0q-4 -2 -5 -7.5t-1 -9.5l-17 -8v-6q3 -2 7 -4v-9q-5 -2 -11 -6q1 -4 2 -14q6 0 0 -15q-4 -1 -14 -4q-3 -4 -9 -8h-8q-1 -3 -4 -7 q-17 -5 -54 4q-6 37 -6 38zM134 13q-3 2 4 11v-13zM134 40q1 6 2 15q8 -8 8 -10t-4 -5h-6zM482 785q-1 11 5 27q-1 0 6 0l14 10h7q-2 -3 -2 -10h2q5 -3 14 -25q-20 -2 -25 -2h-21z" />
<glyph unicode="2" horiz-adv-x="585" d="M11 98l6 5q1 28 14 75q6 4 13 12v16q5 9 12 20q3 1 11 5v6l19 11v6q4 0 11 2q3 7 12 20q8 4 19 11q0 5 3 14l39 28q13 11 14 14q0 12 0 8q9 0 25 3q6 9 17 20q7 -1 19 0q7 5 20 13q-1 2 -3 9q2 1 5 3l-2 8q6 1 22 6q3 4 8 8q4 -2 14 -3q5 6 14 14h9q0 6 2 14q3 3 14.5 5 t13.5 4.5t9 7.5q-1 8 0 22q8 6 16 14q3 5 9 28q-4 8 -3 28q2 5 9.5 7l15.5 4v5q-5 8 -11 20q7 3 0 17q-9 6 -20 16q-2 5 -3 16q0 7 -8.5 11t-27.5 12q-12 8 -14 14q1 4 0 9q-6 4 -24 4h-4q-12 0 -19 1q-3 1 -16.5 8.5t-22.5 7.5q-4 0 -8 -2l-12 -14q-13 0 -41 -5 q-3 -4 -6 -9q-3 1 -8 0v-2q-7 -9 -17 -20q-6 0 -15.5 -4t-23.5 -13v-5q-1 4 -3 -3q2 -17 8 -36q0 -3 -2 -6q-4 1 -11 0q-20 -5 -26 -17q1 -4 0 -11q-4 -22 -10 -26.5t-31 -6.5q-5 6 -11 19q-1 6 2 18t3 13q-2 11 -3 25l6 3q6 12 17 36v13q1 8 7 8q2 0 4 1v6q3 2 8 6 q1 6 6 19q2 1 5 3q1 12 9 33h5q3 5 9 11q10 3 30 12q12 10 36 25q5 1 11 1h2q5 0 11 2.5t15 7.5q6 -1 17 0l6 5h19q1 0 4 3t5 3v-6l14 -4.5t18 -2.5q9 0 25.5 2t24.5 2q10 0 18 -2q8 -6 22 -14h9q4 -5 11 -11q6 -2 14 3.5t16 4.5l3 -5q9 0 25 -3q3 -5 9 -11q4 2 14 2 q0 -2 5 -5v-6q-16 -9 -19 -13q-2 -4 0 -23q5 2 16 3q1 -2 6 -6v-28q27 -2 31 0q1 5 5 12q9 -4 25 -14q1 -4 3 -9q4 0 8 -3v-27q-1 -1 -2 -9q-18 3 -25 3q-3 -2 -6 -6q3 -7 3 -19q-6 -3 -14 -8q-1 -2 3 -3q-16 -28 -14 -45q7 -14 16 -39v-28q-6 -3 -33 -8q0 -13 -6 -34 l-19 -11q0 -7 -6 -19q-4 -3 -12 -3h-1q-8 0 -12 -3q-2 -11 -14 -28q-7 -2 -22 -8q-4 -6 -17 -14q-8 0 -25 -3v-5q-5 -3 -17 -9v-5q-1 -2 -5 -2t-6 -1q-3 -6 -11 -14q-13 -1 -36 -8q-3 -7 -11 -17q-5 -3 -16 -3t-15 -3q-1 -8 -5 -19h-9q-4 -4 -11 -9q-7 0 -22 -5 q-4 -7 -14 -20q-4 0 -11 -2v-6q-8 -6 -23 -14h-8q0 -4 -3 -11q-10 -7 -22 -17v-14q6 -3 5 -5h-5v-9q-1 -2 -17 -11q1 -4 0 -8h-5v-20q0 -2 2 -5q8 -7 51 -11v8q4 0 8.5 -4t6 -4.5t23.5 -2.5q23 -1 26 0q4 6 11 14q2 1 28 11v3q8 0 20 -10t19 -10q1 0 7 4t7 5q9 -3 30 -3 q6 3 20 11q7 1 16 -2l12 -4q11 -1 31 2q24 4 27 4q21 1 28 -3q2 -4 6 -8q11 -3 35.5 -2.5t36.5 -2.5q6 -1 22 -9q1 -6 0 -20q-25 3 -44 -3q-4 1 -11 0q-3 -3 -9 -8v-8l-8 -6q1 -4 0 -11q-12 -19 -31 -22q-6 1 -16 0q-7 -8 -20 -17q-22 -5 -39 6l-3 5l-22 -3q-6 1 -14 3.5 t-14 2.5q-5 0 -22.5 -4t-30.5 -2l-5 3t-6 3t-10 -3.5t-15 -2.5l-14 9q-7 -1 -20 0q-6 6 -16 14q-14 3 -41 0q-35 -3 -37 -3q-22 0 -48 5q-5 4 -14 9q-8 -1 -22 0l-3 5q-8 6 -14 25q-8 28 -8 26zM521 580q1 0 1 1l-1 2h3q18 -9 28 -17q-13 1 -31 14zM550 607q0 2 16 9 q8 -13 8 -15q0 -5 -8 -7q-3 -1 -4 -1h-4q-1 1 5 4zM566 583q-3 3 0 5q7 -7 0 -5z" />
<glyph unicode="3" horiz-adv-x="516" d="M4 724q0 8 5 17q3 2 8 8l8 3q-5 21 -5 19q2 3 5 8l44 3q2 0 16.5 -3t18.5 -3q3 1 13.5 7t18.5 6q4 0 8 -2q4 -7 11 -16q1 -1 27 -3q20 29 35 33q10 2 20 -2q6 -3 13 -6q11 0 32 -3q2 -1 11 -8q5 -1 19.5 3.5t15.5 4.5q17 2 49 1q29 -2 43 2q0 -5 3 -14l9 -7.5t9 -15.5 q0 -4 -2 -9q-3 -1 -8 -3l-14 -30q2 -8 0 -21q-3 -8 -16 -12q-20 -6 -21 -7q-8 -10 -27 -27v-6q-4 0 -11 -3q-2 -3 -6 -8h-2q-6 -11 -3 -24h5q3 -10 14 -24q5 -1 13 -6q3 -10 14 -24q18 -1 49 -14q3 -11 13 -29q5 -1 11 -6v-5h8q3 -1 12 -9t10 -10q-3 -3 -3 -14q5 -3 11 -8 q2 -6 -1 -15q-3 -8 2.5 -12.5t14.5 -10.5l3 -21q-10 -11 -19 -24q-1 -9 13 -38q-6 -3 -13 -8q0 -8 -6 -22q-1 -4 0 -8q1 -1 6 -3q-2 -21 -8 -35q11 -5 32 -8q-8 -3 -19 -6v-8q-1 -1 -16 -13v-8q6 -1 16 -3v-14q-6 1 -13 0v-5q-5 -1 -11 -5q-3 -10 -11 -27q-9 -5 -24 -17 q-5 -18 -19 -43q-9 1 -25 -3q-1 -6 -2 -13l-25 -22q-4 0 -13 -2q-5 -5 -14 -11q-10 0 -29 -3q-14 -8 -38 -17q-4 0 -14 -2q-2 -3 -8 -8q-14 -2 -43 -11q-5 -5 -14 -11q-6 2 -16 3l-5 -5q-17 -1 -49 -6l-5 -5q-53 -14 -73 -5q-12 4 -19 24q-2 3 -6 13q35 28 49 27q3 0 7.5 -3 t5.5 -2v5l11 9q3 -1 8 0q2 5 12 12q4 -1 13 1l11 14q-1 3 0 8q6 5 25.5 7t25.5 6q2 6 8 14q6 1 16 5v5q10 4 30 14q10 11 30 30q4 0 13 2q2 4 6 9q3 -1 8 0q9 6 11 10q-1 4 0 8q8 5 21 17l14 29q2 2 8 3q-1 4 0 11q8 9 24 30q5 5 11 16q3 8 2 35t-5 38q-2 1 -5 3v10 q-3 2 -8 3q-1 1 5 3q-2 7 -5 27q-1 8 0 8q-17 27 -33 35q-7 1 -21 6l-8 13q-14 9 -30 11q-13 2 -33 -4q-15 -3 -29 -7q-7 1 -19 0l-11 -11q-22 -13 -45 -13q-7 0 -10.5 3t-6.5 8q-7 -1 -17 2q1 4 0 8l-5 6q-4 16 8 32q5 3 11 8q0 11 0 8h5q0 10 3 30q3 7 15.5 10.5t14.5 5.5 q1 8 5 19q5 1 14 3q2 6 8 16q1 2 27 25v21q-2 1 -5 3q3 2 -9 19q9 4 27 13q5 7 11 14q-1 4 -5 16q-19 0 -50.5 4t-52.5 4q-1 0 -11.5 -1.5t-15.5 -1.5q1 3 0 3t-2.5 -1t-2.5 -2q-1 -4 -3 -13q-2 -1 -5 -3q1 -3 2 -8q-4 -3 -21 -13q-3 -4 -8 -8q-8 -2 -15 -2q-42 0 -42 33z M250 747q9 -1 13 0q3 13 2 14q-8 2 -15 5v-19z" />
<glyph unicode="4" horiz-adv-x="521" d="M10 260q0 32 12 52q5 3 11 10q1 7 -2.5 18t-3.5 14q5 3 11 8v5q21 12 24 24q0 2 -3 26q14 5 17 7q10 5 12 12q-2 13 0 39l11 11q3 9 13 26q17 11 39 42v24q9 5 19 13q-1 9 0 24h3q7 13 18 37q0 5 3 13q8 3 18 11q0 10 3 29q3 8 18 32l6 2q0 6 2 13q1 3 3 8h47 q-1 15 -2 14q-1 4 0 13l18 13q10 2 36 -15l33 -22v-5q-1 0 -3 -6h-10v-10h-6q0 -3 -2 -8v-21l-3 -8.5t-3 -10.5q1 -1 4 -13.5t2 -17.5q0 -1 -3 -4t-3 -4q7 -8 14 -19q-4 -7 -6 -23q5 -5 11 -14q2 -10 -3 -18q-8 -10 -8 -11q1 -7 0 -21l-8 -2q2 -12 -2 -43q1 -1 1 -5t10 -7 q6 -2 13 -4v-5q-2 -1 -19 -21h-5q-1 -3 0 -18l8 -8q-1 -5 0 -14q0 -1 4 -8t4 -13q-4 -12 -3 -16q5 -2 11 -7q1 -2 5 -40q6 -1 16 -3q-2 -8 -8 -26q6 -3 13 -8v-5q4 -2 8 -2q7 0 16 4.5t10 5.5q4 0 66 -19q7 -15 14 -32q1 -12 -7.5 -18t-16.5 -11l-8 -8q-9 3 -29 3 q-11 -4 -32 -10q-6 -29 -21 -35q-3 -1 -32 -5q0 -1 -2.5 -5t-2.5 -8q6 -6 13 -16q1 -7 6 -19q8 -1 21 -7q6 -7 -3 -22q-5 -1 -40 -13q2 -50 3 -47q-2 -1 -5 -3q-6 -10 -11 -20q-8 -10 -21 -9q-9 1 -23.5 16t-16.5 24q3 9 3 31l-5.5 8t-2.5 13l5 3q5 13 6 26q0 3 -2.5 8 t-3.5 8q1 16 0 40q-1 1 -5 3v13h-2v10q-4 2 -10.5 7.5t-21.5 13.5q-5 1 -20 -2q-18 -3 -20 -3q-19 2 -58 3q-22 -2 -45 -5q-31 -3 -45 2q-3 7 -13 16q-12 1 -29 8q-4 5 -4 17zM136 372q17 -16 8 -39l-6 -3q1 -4 0 -11q3 -1 19 -13q3 1 8 0q1 -2 2 -8q4 1 11 0q6 -1 13 -2 q-5 3 0 8q15 13 27 13q7 0 13 -3q2 -3 8 -8q5 1 15 0q0 6 3 16q8 5 19 16q2 6 2 12t-3.5 16t-4.5 14q0 9 6.5 19t6.5 13q1 2 -2 8q2 1 5 2q-1 6 -8 12.5t-8 9.5q1 2 0 7l-5 3v29v5q-10 7 -26 14q7 1 18 2v-8h8q12 5 16 19q6 19 2 32q-6 4 -15 13v10l-14 16q-5 0 -15 3 q1 -5 2 -13h-2q-1 -1 2 -6l-24 -10q-1 -4 -2 -11q3 -5 5 -10q-6 -8 -13 -19q1 -8 0 -24h-3q-1 0 -10 -8q-1 -3 0 -7l13 -8q-1 -4 0 -8q-7 -12 -19 -19v-5h-5q-3 -4 -13 -34q9 -8 16 -16l-11 -11h-10q-2 3 -6 8q-8 -3 -23 -16zM347 161q3 -1 8 -3q-5 3 -8 3z" />
<glyph unicode="5" horiz-adv-x="495" d="M12 518q3 1 8 5q4 11 3 34t2 33l5 5q0 7 -4 16t-4 10q2 9 0 29l-5 2q-3 13 0 29q5 8 10 21q1 6 -2 20.5t-3 20.5q0 8 3 13q11 7 23 16q2 6 5 18q19 1 55 5l4.5 2.5t5.5 2.5q2 0 9.5 -4t8.5 -4q11 3 36 3l5 -5q7 -1 14.5 3t9.5 4q10 2 29.5 -5.5t29.5 -7.5q2 0 12 3t12 3 q7 -6 18 -13q5 -2 11 -2q8 0 19 6.5t19 5.5q20 -9 57 -21q-3 -2 -8 -5q-5 1 -13 0q-6 -6 -15 -13q-11 2 -31 3q-7 -4 -16 -8q-14 0 -34 -3l-2 -5q-7 3 -21 5q-1 0 -10 -7q-14 -4 -37 -2q-28 2 -33 2l-8 -5q-15 1 -44 0q-2 -3 -13 -8l-5 -3l-3 -26q7 -4 11 -8l-13 -7 q-3 -5 -2 -23.5t-1 -25.5q0 -1 -2.5 -3t-2.5 -5q7 -8 16 -21q-1 -3 0 -8l5 -2q1 -10 -5 -13l-6 -3q1 -5 0 -13q-2 -1 -5 -2q-1 -5 5 -24q1 1 13 5v8l29 21q13 -2 36 -3l8 6q35 7 70 -3q7 -2 18.5 -13t20.5 -13q16 -4 25 -3q6 9 16 8q5 -3 10 -8q7 0 21 -2q6 -5 16 -10h7 q-1 -7 0 -19q9 -6 18 -13l3 -12q27 7 36 2q6 -3 6 -6q0 -6 -19 -15q8 -17 11.5 -19.5t22.5 -0.5q1 -6 0 -16q-10 -11 -21 -36q1 4 5 -23v-6v-23q5 -20 6 -18l-6 -3q3 -28 0 -33q-7 -5 -15 -18q2 -7 3 -24q-4 -3 -8 -7q-3 -8 1 -12.5t7 -8.5q-1 -4 0 -10q-2 -1 -3 -11 q-10 5 -13 5q-4 0 -5 -18l5 -2q2 2 5 7q3 1 26 -7q0 -9 0 -8q-12 -2 -28 -8q-1 -3 -3 -8q-5 2 -13 3q0 -2 -5 -5l5 -5q-2 -27 -5 -34l-8 -3q-2 -3 -5.5 -6t-7.5 -3q-5 0 -14.5 3t-13.5 3t-8 -2q-3 -1 0 -10q-5 0 -11.5 -3.5t-9.5 -22.5q-13 -6 -31 -13q-7 1 -21 0l-2 -5 q-14 1 -42 -3q-4 -6 -13 -15q-9 -2 -25 -8q-6 -7 -22 -17q-21 1 -61 -1q-7 -3 -14 -5q-11 -4 -20 -3l-5 5q-6 2 -29 0q-29 -2 -28 -2q-9 3 -8.5 19.5t-1.5 16.5q17 16 38 21q10 -1 29 2v5q6 3 15 5h19q9 11 25 24q6 -3 13 -5q3 3 6 7q7 1 20 6q3 5 11 13q5 0 15 5q3 5 10 13 q7 3 21.5 3t19.5 3.5t7 12.5t4 12q10 2 24 18l2 2h5q1 6 6 19q8 3 18 12q-2 7 0 19q4 2 10 7l21 26l15 21q8 19 0 70l-8 21q1 7 0 20q-3 6 -7 13q1 5 0 18q-5 4 -11 11q1 4 0 10q-5 3 -15 10q-3 6 -11 13q-8 3 -25 8q-6 4 -19 8q-3 0 -14.5 -4t-13.5 -4q-5 1 -16 0 q-3 -3 -10 -8q-11 1 -31 -2q-1 -4 -5 -11q-7 -5 -18 -10q-5 1 -13 0l-3 -5q-8 0 -26 -5v-8q-5 0 -15 -3q-1 -4 -5 -10v-3q-8 -3 -14 1t-7 5q9 -1 -29 -2q-16 0 -23 12q-1 2 -12 41.5t-11 41.5z" />
<glyph unicode="6" horiz-adv-x="602" d="M14 285q-3 31 3 53q4 5 9 12q4 21 0 38q-4 5 -9 12q-2 16 3 38q4 5 9 12q-3 5 -3 21q6 4 12 11q-3 9 -3 27l15 12q-1 0 -3 17q5 3 0 3q6 43 3 56q6 5 17 15q-9 30 -9 32h3l24 35q2 5 2 24q1 13 7 18q3 -1 9 0l5 5q16 3 30.5 5t19.5 13q0 8 3 24q4 5 17.5 13.5t21.5 9.5 h11q4 4 12 9q1 0 19 -2.5t19 -3.5l9 -20l9 -3q1 -1 -9 -6v-15l15 -3q2 -6 3 -18h-6q-3 -8 -6 -32l-6 -3q-14 10 -20 30h-15q-3 -10 -6 -33v-9q-1 -1 -41 -6q-3 -3 -6 -8q1 -9 0 -24q-2 -4 -10 -7t-11 -5v-6q-5 -4 -11 -14q1 -7 0 -18q-10 -5 -24 -18q-2 -3 -12 -38 q5 -1 21 -3q1 -15 6 -38q10 9 29 24q4 -1 9 0l29 20q6 0 18 3q5 4 12 9q6 1 21 -1q8 -1 17 -2q6 2 24 3q7 -4 17 -9q16 2 44 0q5 -1 9.5 -9t5.5 -9q13 -1 38 -5q6 -6 15 -12q13 1 35 -3q4 -2 4.5 -7t2.5 -8.5t12.5 -7t13.5 -7.5q0 -9 6 -26q5 -1 14 -6q1 -6 6 -18 q8 -3 18 -8q-9 -30 -3 -47l12 -12q2 -8 0 -33q3 -1 0 -2q-2 0 3 0q-5 -20 -9 -42q0 -2 3 -8l3 -6q-2 -9 -3 -30q0 -13 3 -32q0 -1 38 -24q-8 -8 -27 -23q10 -18 9 -38q-15 -8 -26 -18q-6 -8 -15 -18q-5 0 -12 -3q1 -3 0 -8q-1 -3 -10.5 -13t-12.5 -11q-8 0 -24 -3 q-4 -4 -12 -9q-4 1 -11 0q-14 -6 -39 -14q-13 0 -41 -3q-12 -6 -35 -12q-12 2 -38 3q-3 -1 -25 -7q-18 -6 -28 -5q-7 0 -34.5 10t-32 14.5l-13.5 13.5q-10 4 -32 15q-6 4 -32 32v9q-4 0 -9 3q0 5 -3 12h-6q1 4 0 9q-7 3 -18 14q0 9 -3 27q-4 3 -8 9q1 5 0 14q-8 8 -18 24v12 q-4 6 -9 17q-6 24 -9 50zM120 291q0 -4 3 -12q4 0 12 -3q-7 -14 -9 -44q26 -8 50 -6l3 -8q-1 -2 -3 -3q-1 -5 0 -12q7 -1 18 -9q0 -5 3 -15q-3 0 -12 -3q0 -5 -3 -14q10 0 32 -3q6 -2 19 -18q15 -19 17 -20v11q-2 1 -7 0q-4 0 -4 1q-1 0 5 2q18 7 29 7q27 0 33 -45h47 q2 6 8 21q4 2 9 1l6 -1q6 1 26 9t21 11q4 7 4 25.5t1.5 23.5t8.5 12.5t7 12.5v3h6q1 8 -4 16.5t-5 9.5q-1 7 3 15q3 4 6 9q6 23 3 41q-7 9 -18 26v12q-4 14 -21 41q-10 16 -14 18h-6v9q-9 7 -24 23q0 5 -3 12q-4 2 -33.5 7.5t-36.5 4.5t-22 -8.5t-17 -12.5q1 -5 0 -12 q-7 1 -23 -2q-3 -6 -9 -12l-9 6q-4 0 -9.5 -3t-7.5 -3v-18q-3 -1 -6 -6q-44 2 -53 -6q-6 -4 -6 -13q1 -14 0 -16l-6 -3q-14 -37 -9 -59zM297 762q1 10 3 6v8q3 2 8 6q13 -11 13 -14l-13 -18q-5 4 -11 12zM329 797q3 -1 5 -5l-2 -4q-5 6 -3 9zM527 457q0 5 5 5q-5 -20 -3 -9z " />
<glyph unicode="7" horiz-adv-x="538" d="M13 665l10 13v10q1 10 5 30l5 6q-3 11 0 35q2 4 10.5 6.5t8.5 6.5t2 10q4 1 10 3q1 3 5 7q14 9 41 8l12 -5q18 0 54 -5l5 -5q11 3 36 2l5 -5q29 -4 71 3q3 0 19.5 5t23.5 5q8 0 32.5 -3t34.5 -2q1 0 8 2.5t12 2.5q11 -5 25 -10q9 5 34 7q4 -3 10 -7h10q3 -4 8 -10 q4 -2 9 -6t6 -17q2 -13 -3 -16l3 -7h-3q-3 -11 -12 -26q-7 -1 -16 -7q2 -9 0 -23h-5q-19 -18 -20 -21l-3 -2h-5q2 -5 -2 -21q-3 0 -11 -2q-1 -12 -10 -36q-4 -4 -10 -13q1 -3 0 -7q-4 -2 -8 -5q2 -6 0 -16q-5 -1 -12 -2l-13 -36l-13 -15h-5v-21l-5 -7q2 -4 3 -10l-8 -5 q1 -10 5 -29q-7 -5 -23 -15q6 -22 -2 -43q-4 -3 -8 -8q1 -4 0 -13q-4 0 -8 -2q0 -13 -2 -28q-5 -2 -10 -8q-1 -3 -3 -18q0 -6 5 -11.5t5 -8.5q2 -7 -5 -18q2 -5 3 -20q-5 -4 -11 -10q-3 -14 11 -41q8 -12 7 -13q-4 -2 -6 -9q-3 -10 -4 -11q-4 -2 -8 -5q-1 -7 4 -15 q4 -4 7 -8q-1 -11 0 -23q2 -8 7 -8h3l-5 -2q3 -2 2 -5q-6 -3 -10.5 -24t-7.5 -25q-5 -9 -28 -23q-6 -4 -17 -10q-9 -1 -30 3.5t-24 9t-7 29t-3 34.5l5 23q-6 3 -3 21q7 9 13 23q-4 22 -5 61q8 13 18 41q-2 15 0 45q7 9 15 26q-1 16 3 46q8 7 18 25q-2 9 0 26l7 7v5 q-1 10 0 26q4 2 8 5q-1 4 0 10l5 3q5 9 13 28q0 8 5 25l10 13q8 19 10 46q1 14 -2 18q10 6 12 8.5t5 14.5q1 6 3 15q7 5 18 15q2 9 7 26l6 7q-1 0 -3 5q-3 10 -6 19t-22 7q-1 0 -12.5 -3t-18.5 -2l-17 5q-18 -2 -56 0q-9 2 -18 5q-13 3 -23 3q-11 -1 -31 -3q-6 -4 -13 -8 q-3 3 -12 3q-5 -6 -16 -15q-3 0 -7 -3q-6 -9 2 -25q-12 -12 -20 -28q2 -1 2 -5q0 -16 -10 -29q-4 -6 -20 -14.5t-26 -5.5q-2 5 -5 10l-18 15q-2 4 -7 29q-2 4 -4 9t-1 11z" />
<glyph unicode="8" horiz-adv-x="691" d="M16 244q0 6 3 14t3 9q1 8 -6 34q14 7 29 17q-3 4 -3 8q6 3 8 20q2 23 3 26t14 19.5t15 16.5h5v9q1 2 14 13.5t15 12.5q4 -1 11 0q-1 2 3 5q-15 13 -40 40q-2 6 -8 17q-8 1 -20 11q-5 9 -2 45q1 30 5 46q-2 5 3 11l-6 12q-3 16 6 39l5 3q2 9 9 26q6 6 14 17q-1 3 0 8 q4 2 8 3q2 7 9 17q7 1 20 6q-1 4 0 8l14 12q10 0 28 3q8 9 27 21q12 -1 36 1q3 3 8 6q27 4 40 0q4 -4 8 -9q14 -2 39.5 3.5t29.5 5.5l8 -6q13 3 40 -3q2 -4 5 -8q10 1 29 0q11 -9 34 -23q21 -1 57 -14q3 -6 11 -17q6 -2 14 -8q2 -20 6 -52q20 -1 23 -2t8 -15v-5 q-10 -5 -23 -23q-2 -17 0 -40l3 -7t3 -10l-6 -5q2 -9 0 -23q-9 -6 -20 -17q0 -11 -0.5 -21.5t-13.5 -11.5q-3 0 -6 -1.5t-13.5 -10t-11.5 -12.5v-22h9q2 -4 5 -9q16 -15 46 -11q13 -25 31 -34q11 -3 25 -15v-11h-11q1 7 -3 9q-1 -6 -5 -20h-6v-17l25 3v-6l-9.5 -14t-5.5 -17 q0 -4 1 -9q9 -4 20 -14q1 -9 3 -20q27 6 31 -11v-9l9 -3q-14 -18 -34 -28q-1 3 -6 6q2 -4 6 -9q3 0 11 -3q0 -1 3 -11q-3 0 -6 -6q-8 1 -8 0q-7 6 -6 6l-3 -11h-8q5 -3 22 -20l-8 -11h-14q-3 -5 -9 -12q3 -1 3 -6q0 -10 -14 -36q-32 0 -35.5 -4t-7.5 -11q-4 0 -11 -2v-6 q-7 -3 -23 -11q-7 -6 -13.5 -11t-16.5 -5q-4 0 -7 -1q-3 -4 -8 -9q-8 -1 -26 -6q-8 -7 -23 -17q-9 -3 -25 -2q-19 1 -26 0l-5 -6q-8 -2 -32 -3q-24 -2 -31 0l-5 6q-11 -2 -26 -3q-3 4 -8 8q-14 3 -43 12q-5 5 -14 11q-13 3 -35 1q-23 -3 -33 -1q-2 0 -8 5.5t-9 5.5h-3 q0 7 -3 20q-2 5 -11 8.5t-12 5.5q-3 7 -11 20q-6 4 -14 12q-2 8 -9 22q-12 3 -31 15q-7 8 -11 25q-1 12 -6 37q-7 3 -3 3q4 -1 6 8t0 14zM110 298q-1 -7 6.5 -14.5t7.5 -8.5q-2 -6 -3 -20q5 -3 9 -8q1 -8 -3.5 -15t-5.5 -8q0 -13 -2 -40q15 -8 17 -8q4 0 8 28h11q4 -2 9 -8 q-1 -7 3 -20q2 -3 10 -4t8 -4t2 -9q5 -10 25 -20v-3q12 1 34 -3l3 -14q4 1 14 6q4 -4 9 -6q-2 -3 -3 -6q7 -2 26 -2q18 0 25 2q6 6 20 12q9 1 23 -5t17 -7q25 -4 56 9q25 10 32 23q0 4 2 11q4 1 9 3q0 5 3 14q-5 4 -12 11q40 7 40 19q0 1 -1 6v8q0 11 7 21q4 1 7.5 3.5 t3.5 9.5q0 20 -11 30q-4 0 -8 4.5t-4 20.5t-2 23q-2 4 -10 6.5t-10 4.5q1 6 -3 15q-5 0 -14 2q-3 4 -9 9q-10 2 -34 8v6q-6 -2 -23 0q-7 6 -22 14q-9 -1 -26 0q-8 3 -8 9v3q-11 -2 -32 0q-4 1 -8 10t-6 10q-6 0 -14 2v-8q-7 -4 -17 -9v-3q-7 0 -23 -2q-7 -7 -22 -17 q-7 -1 -20 -6q-1 -1 -5.5 -6t-8.5 -5h-3q0 -7 -3 -20q-3 0 -9 -3q-2 -8 -8 -23q-4 4 -14 12q-5 -1 -14 -3zM113 621q1 -8 3 -14l5 -3v-8h6q2 -5 6 -12q7 -3 20 -14q1 -8 8 -22l29 -23q4 -1 9.5 2t7.5 3q6 -15 14 -31q5 1 14 0q6 -5 17 -11q9 0 25 -3q6 -8 17 -20q6 -3 13 -3 q15 0 39 15q1 3 5 8q9 0 26 3q3 4 8 8q6 -6 29 -8l2 3q6 2 15 8q2 10 11 23q6 -1 17 0q2 4 6 8q4 0 14 3q2 4 8 12l3 3q1 1 -2 27.5t-3 28.5q-6 3 -17 9q-3 4 -9 11v9l17 11v8l-8 6q1 7 0 20q-2 3 -11 6t-9.5 10t-2.5 24q-2 0 -6 5q-4 1 -11 2t-9 1t-10.5 -4t-11.5 -4l-9 5 q-32 7 -59 3q-3 0 -11.5 -4t-14.5 -4q-2 0 -13 3.5t-18 1.5l-6 -8q-23 -11 -65 -3q-1 -1 -9 -8q2 -6 3 -12q-6 1 -17 0q-2 -5 -8 -14q-7 -1 -20 -6q-5 -11 -17 -25h-3q0 -5 -3 -14q-1 -2 -14 -12zM158 233q2 14 3 14q11 0 12 -6q0 -6 -1 -11q-5 1 -14 3z" />
<glyph unicode="9" horiz-adv-x="527" d="M13 517q-1 4 2 15q3 42 3 61q1 1 5 3q-2 14 0 42l10 21q-1 5 3 16t14 14q4 -1 10 0q1 4 3 13l5 2q1 6 5 18q5 2 10 7q-2 3 -2 10l20 28v5q7 0 23 3q13 7 35 15q5 -1 13 -3q11 4 27 8q14 -2 36 -3q2 1 14 4.5t16 3.5q51 0 66 -5q1 -2 2 -5q8 -5 20 -8q3 2 10 3 q25 -10 31 -13q8 -9 20 -20q5 1 15 0q0 -2 5 -5q1 -17 1 -18q2 -8 9 -15q3 -1 8 -5q-1 -5 0 -15q5 -9 12 -23v-12l5 -3q-2 -1 -2 -7q5 -4 12 -11q2 -3 2 -10q0 -9 -4 -7v-5q0 -8 18 -25q-5 -4 -11 -11q-6 -14 -2 -37q2 -16 28 -23v-10q-8 -1 -5 -3q15 -9 10 -28q-4 -3 -8 -7 h-2q1 -9 0 -25q-4 -3 -8 -8q-5 -9 3 -30q-2 -1 -16 -3q1 -1 -2 -5q5 -37 0 -60q-5 -5 -10 -13q1 -6 0 -18q-4 -2 -10 -7q-9 -18 -25 -53h-3q-2 -9 3.5 -21.5t5.5 -17.5t-1 -9q-4 -2 -8 -5q1 -5 0 -13q-9 -10 -20 -25v-15q-6 -4 -15 -14t-10 -14v-7l-16 -13q2 -7 0 -20 q-1 -4 -13 -11.5t-17 -8.5h-7q-6 -8 -18 -18h-10q-7 -5 -20 -13q-7 0 -21 -2q-3 -4 -10 -8q-16 -5 -43 -6q-36 -2 -48 -4q-36 -5 -37 -5q-12 2 -28 10q-5 5 -15 13q-6 -1 -15 2l-3 5q13 7 23 20q14 19 48 28l5 5h35l46 3l17 7q11 -2 33 -2q16 2 23 10q0 6 5 15q3 1 7 3 q0 4 3 10l12 -3l21 13q-2 18 -3 19.5t-10 8.5q4 0 13 2q0 11 5 35l30 36q4 -1 8 0q-1 8 0 22q2 16 7 26q4 3 8 7q1 9 -3.5 36.5t-9.5 31.5q-13 12 -28 8q-10 -10 -25 -23q-7 0 -25 -5q-8 -5 -23 -12q-30 -7 -53 -3q-6 5 -18 10q-12 -1 -35 0q-3 5 -10 10h-10q-17 3 -41 14 q-27 12 -35 22q-3 8 -12 25q-9 6 -23 23q0 9 -5 27h-5l-20 26l-3 22q-3 4 -7 10zM88 601q-1 -13 3 -38q5 -4 10 -10q2 -10 -1 -25.5t-2 -22.5q2 -8 15 -15v-8q4 0 8 -3q1 -9 8 -27q4 -2 12 -5q1 -1 3 -4.5t5 -3.5h2v-7l23 -3q4 -3 10 -8q11 -3 35 -12q2 -3 6 -8q14 2 40 10 v5l11.5 5.5t19.5 1.5t22 1q3 4 7 8h6q0 6 5 17q9 4 20 10q1 7 5 23l5 3q-1 4 0 12l20 23q-1 14 0 38l5 7q3 13 -2 36q-5 7 -11 20q1 10 -2 30q-11 8 -23 18q1 6 0 20q-14 22 -15 23q-4 0 -13 2q-6 10 -25 25q-12 7 -25 11v12h-8l-5 -15q-9 0 -30 -3l-7 -7q-7 0 -21 -3l-7 -7 q-7 1 -20 0l-21 -15q-1 -2 -1 -6.5t-1 -6.5l-13 -8q1 -6 -2 -17q-12 -4 -28 -13v-5q-5 -4 -10 -10q1 -6 0 -15q-5 -3 -10 -8q-1 -5 2 -10t3 -10z" />
<glyph unicode=":" horiz-adv-x="257" d="M62 262q-3 23 1 31q2 1 5 4.5t9 12.5q6 4 12 10v4l22 6q4 3 12 7q17 2 28 -8q1 -3 3 -6q9 -1 22 -5q0 -4 3 -11q2 0 4 -1l7 -11q4 -11 3 -17l-3 -3v-5q4 -4 3 -12q-4 -7 -8 -19v-6q-5 -3 -17 -9l-8 -5q0 -2 -1 -5q-6 -3 -27 -6q-25 -3 -32 0q-3 4 -9 11q-3 0 -8 2 q-11 5 -15 12t-6 29zM64 82q0 19 3 21q-1 1 -1 5q1 0 3 1q0 7 3 19q3 2 8.5 7t5.5 7v1q7 -1 23 -1l3 3q8 1 22 4q4 2 1 2q3 0 7.5 -4t5.5 -4h8q2 -1 14 -8.5t13 -9.5q2 -7 7 -21l4 -3q1 -3 -1.5 -6t-2.5 -4q1 -6 0 -19q-2 0 -4 -1.5t-6 -9.5q0 -1 2 -6q-2 -1 -5 -3v-5 q-2 0 -7 -1q-1 -2 -3.5 -3.5t-7.5 -3.5q-6 -5 -14 -10q-2 -1 -25 -2t-42 14q-3 6 -9 15l-3 2q-2 5 -2 24z" />
<glyph unicode=";" horiz-adv-x="257" d="M45 65q4 4 8 13q-1 6 1 16q3 1 7 4q1 4 5 12q2 3 20 9q11 3 11 7q0 3 -4 6q2 1 5 3q4 -2 14 -2l2 4q8 7 20 8q19 1 29 -12q1 -5 6 -13q5 -3 15 -10l13 -13v-3q4 0 9 -3l3 -6q-2 -5 -1 -8q4 -6 3 -8q-2 -7 -5 -24l-3 -3q2 -7 2 -22l-5 -13q-2 -8 0 -14v-3q-8 -8 -17 -16 q-2 -4 0 -16q-12 -16 -16 -17h-3q0 -4 -3 -11q-6 -12 -16 -18q-6 -1 -17 -5q-1 -3 -4 -8h-6q-2 -3 -6 -6q-6 -2 -25 3q-9 1 -23 6q-1 0 -4.5 20.5t-2.5 23.5l3 2q0 3 1 9h3q4 5 13 13v1h6l12 9q1 3 0 10q-2 2 -5 4q1 3 -1 10q-10 8 -23 22v6q-6 5 -15 16q0 4 -3 13 q-1 1 -3 4zM62 262q-3 23 1 31q2 1 5 4.5t9 12.5q6 4 12 10v4l22 6q4 3 12 7q17 2 28 -8q1 -3 3 -6q9 -1 22 -5q0 -4 3 -11q2 0 4 -1l7 -11q4 -11 3 -17l-3 -3v-5q4 -4 3 -12q-4 -7 -8 -19v-6q-5 -3 -17 -9l-8 -5q0 -2 -1 -5q-6 -3 -27 -6q-25 -3 -32 0q-3 4 -9 11 q-3 0 -8 2q-11 5 -15 12t-6 29z" />
<glyph unicode="=" horiz-adv-x="482" d="M25 335q1 -5 4 14q-2 3 -4 7q3 3 9 8v2q12 7 42 4q2 4 8 9q16 5 61 -7l6 -4q6 3 17 6q2 -1 16 -5t23 -1q4 5 11 11q4 1 10.5 -1.5l6.5 -2.5q6 2 17 2l4 -5q6 -1 13 2t8 3q9 2 20 -1q15 -4 17 -4q31 3 88 -2q4 -4 9 -8q4 1 10 0q2 -7 6 -15h9q1 -4 0 -10q-6 -3 -17 -9v-4 q-3 -8 -11.5 -11t-21.5 -5q-3 0 -9 2q-11 -3 -33 -7q4 0 -55 4q-1 0 -54 -4q-37 2 -107 4q-7 0 -26.5 -4t-30.5 -4q-8 0 -16 2q-4 1 -16.5 15t-13.5 19zM25 467v4q3 10 2 17q0 3 -2 2v8q1 5 15 11q8 5 21 12q28 6 56 2q5 -3 7 -2l6 4l6 -4q2 -1 11 2q-1 0 23 -2q11 1 35 2 q10 -3 26 -6q17 4 52 4l4 -4q11 -2 30 1q24 5 25 5q7 0 15.5 -4t9.5 -4q11 1 35 -2q2 -1 16 -12t14 -13q-1 4 -2 -17q0 -3 -2 -8q-3 1 -9 0q-9 -7 -29 -17q7 1 -17 4q-18 2 -55 -4q-5 -1 -25 2q-4 1 -14 -2q-6 1 -9 2q-7 0 -27 -2q-16 -1 -27 0q-9 2 -11 2q-1 0 -6.5 -2 t-9.5 -2l-5 4q-9 1 -18 0q-6 -3 -13 -6q-9 2 -25 2q-1 0 -9 -3t-14 -2q-7 2 -19 5h-23q-7 4 -21 10q-3 0 -9.5 3t-7.5 10zM457 343q-6 14 0 13t4 -6q-2 -4 -4 -7z" />
<glyph unicode="?" horiz-adv-x="582" d="M28 623q8 12 17 34q6 21 0 25q5 4 12 12q1 5 5 17h6v5q0 1 16 15.5t18 15.5q11 1 34 9q9 12 25 28q13 0 37 3q8 6 25 14q8 1 22 -5t21 -6q3 0 35 4q27 4 41 1q17 -3 40 -16l36 -20q13 -3 37 -15q7 -12 22 -33q5 -2 12 -6l14 -17q-1 -3 0 -9q7 -5 20 -16q-2 -7 -6 -23 q2 -1 6 -6q3 1 9 -8q1 -2 2 -3q-1 -6 -6 -25q4 -2 9 -6q0 -4 2 -9q5 0 15 -2q-2 -2 -9 -6q1 -9 0 -8h-17q1 -11 -3 -32l-14 -11q-1 -3 3 -28q-21 -10 -24 -21q-7 -25 -10 -30q-6 -3 -14 -11v-6h-6q0 -5 -2 -11q-6 0 -20 -3q-7 -6 -20 -14q-4 3 -14 0q-1 -6 -3 -14 q-3 0 -6.5 -4t-7.5 -10q-8 -6 -16 -11q-3 -3 -9 -20q-6 -1 -26 0v-14l14 -6v-9q-11 -8 -25 -22v-17q-2 -7 -21 -22.5t-27 -17.5q-33 -6 -45 14q0 4 -3 12q-4 2 -9 5q-9 36 0 77q2 7 12 27q9 17 9 25v2q0 5 2 8l20 22h8q3 7 12 20q12 7 28 20l5 20q29 -2 37 8q0 7 6 17 q11 1 28 6q11 6 19 34t6 45q-2 8 -5 17q-5 -1 -12 0q-8 4 -25 11q3 7 11 20q-9 6 -19 17v5q-11 7 -55 10q-42 3 -61 -1l-3 -6q-12 -1 -34 -8q-1 -5 -3 -12q-6 -4 -19 -14q-1 -10 5 -25q4 0 9 -3v-23q8 -4 25 -14h-14q-3 -28 -3 -31q1 -6 4 -11.5t3 -7.5q0 -4 -18 -12 q-10 -3 -31 -14q-5 -6 -17 -14q-28 -6 -54 0q-2 1 -24.5 17.5t-23.5 19.5q1 9 -3 28q-5 4 -11 11q1 11 0 31l-4 16q-3 13 -2 21zM187 70q-5 21 12 51q16 25 33 36q3 0 11 3l3 6q14 3 56 2q16 0 22 -6l12 -11.5l14 -13.5q4 -9 14 -28q3 -1 5 -4t2 -10q0 -39 -12 -54 q-10 -4 -26 -17q-2 -5 -8 -14q-4 1 -11 0q-7 -4 -17 -8q-3 0 -37 5q-22 4 -32 9q-18 8 -20 23q1 3 -2 11q-8 4 -19 20zM370 550q1 11 3 11q3 0 15 -5.5t7 -5.5h-25z" />
<glyph unicode="A" horiz-adv-x="767" d="M26 56q-3 23 1.5 34t30.5 15q2 0 37 2q19 2 30 9l18 30q-2 6 -3 14q1 5 11 11t12.5 11t0.5 14q-3 9 -1 14q21 26 23 26h3q1 3 0 36q-1 1 -3.5 2t-2.5 3q1 5 10 11.5t11 9.5q-1 4 0 9q4 0 9 3q2 13 -6 19q-6 3 -12 7q1 4 0 9q7 3 15 9q4 5 7.5 20t7.5 19t11 10 q13 20 15 35q-3 9 -3 30l4 11q3 8 2 15q-1 0 -4 3.5t-2 8.5q4 2 8 6q1 1 3 14q-3 11 -3 35q7 5 15 15q-2 3 -3 12q10 6 24 20q4 12 1 33q-3 23 -1 31q3 6 8 15q1 -2 2 2.5t1 6.5q-1 5 -11 12.5t-10 12.5q0 9 18 22q6 -1 15 6q0 7 3 23l41 29h35q4 -1 6 -3q26 -9 55 -26v-18 q2 -10 27 -20q0 -4 -3 -12q-10 -7 -27 -17q13 -18 15 -25q2 -8 -3 -31q8 -4 23 -15v-8q-3 -1 -11 -3q4 -21 14 -56q1 -1 18 -15q0 -12 6 -32l20 -11q-3 -8 -6 -15q-9 -3 -17 -6v-9q3 -7 17 -17h3q-1 -8 -3 -27l6 -5q-1 -8 0 -21l18 -29q20 2 41 -6v-6q-12 -6 -24 -14 q13 -10 15 -18q2 -15 3 -29l6 -9q6 -21 -3 -47q4 -2 9 -9v-11q-4 -2 -9 -6q-3 -25 15 -53q4 -6 17 -11.5t15.5 -9.5t3 -13.5t2.5 -15.5l6 -3l3 -8q6 -4 19 -3.5t19 -2.5q3 -7 11 -18q5 0 15 -3q0 -3 3 -8l15 -3v-6h5q1 -38 0 -41q-4 -4 -11 -12q-11 -12 -19 -12q-21 1 -22 0 q-10 -6 -30 -14q-5 -1 -64 6q-10 1 -23.5 -3t-23.5 -3q-11 4 -29 9q-12 -2 -35 0q-7 4 -18 8q-3 0 -12.5 -4t-10.5 -4q-4 6 -15 17l-12 3q5 17 0 32q-8 1 -23 0q-6 -4 -15 -9q-6 -1 -13.5 1.5t-12.5 4.5q-3 -1 -15 -3q5 -16 5 -17q0 -5 -16 -12q-6 -4 -15 -9q-13 0 -41 -3 q-35 -5 -32 -5q-41 2 -35 2q-1 0 -8.5 -2.5t-9.5 -2.5q-8 4 -23 8q-14 -2 -38 -3q-14 3 -32 6q-10 -1 -26 0q-1 1 -15 11.5t-15 12.5q-5 6 -8 27zM280 146q2 -3 3 -9q12 -3 3 -3q39 3 55 -18q0 -5 10 -13q7 1 22 -1q3 -5 9 -12q6 -1 15 -3l11 9q0 4 3 12h6q3 1 20.5 17.5 t20.5 20.5l-6 14.5t-11 8.5q-6 -1 -15 0l-6 21q-5 4 -39 8.5t-46 2.5q-15 -2 -20 -29h-12h-14v-20q-5 -3 -9 -6zM324 392h20q0 3 6 8q21 -31 17 -44q-2 -1 -8 -5q-2 -5 0 -9q1 -3 6 -3l14 9h29q5 12 12 35q-6 6 -20 17q-6 1 -18 6q0 4 -3 9q15 -5 24 -5q15 0 15 15 q0 6 -5 25t-5 26q-11 7 -11 6q0 1 3 24l-9 3q-8 -3 -26 -21q2 -3 2 -9q4 -1 12 -6q-10 -3 -23 -14q-2 -5 0 -10q3 -5 3 -8q0 -4 -12 -11q-1 -11 -6 -30q-21 3 -17 3q0 -12 0 -11z" />
<glyph unicode="B" horiz-adv-x="743" d="M23 29q0 12 7 29l10 22q6 2 20 3q6 0 24 3q3 4 9 9q10 2 31 1q23 -2 32 -1q3 0 41 15q-1 12 0 32q4 2 9 5q1 11 -3 22l-6 16q1 6 0 23q-10 13 -6 15q7 4 8 38q0 23 1 46l9 23q3 24 3 50q-6 11 -6 17q5 4 3 8q-2 7 0 13q4 2 8 5q1 11 -7.5 23t-9.5 15q-2 10 1 24 q2 10 5 20q-1 -6 -6 38q3 23 3 66q-2 16 -12 24q-3 3 9 20q-2 5 -8 13q-3 3 -10 2q-8 -2 -11 0q-3 4 -9 11l-24 12v3q-15 -3 -43 -3q-46 6 -58 20q-7 9 -7 30t7 31q2 3 29 9q46 11 48 11q7 0 12 -3t10 -8q7 -2 15.5 0.5t10.5 2.5q5 -4 12 -9q26 -10 46 -6l32 24 q10 2 33.5 -1t27.5 -2q14 5 15 5q9 1 20 -5t15 -6q9 -1 18.5 4t15.5 5q8 -5 18 -9q10 -2 26.5 1t25.5 2q7 -5 18 -12q11 0 37 -6q7 -5 21 -11h14q2 -4 6 -9q8 0 24 -3q3 -7 11 -20q4 -6 26 -21q0 -2 3 -8q-6 -3 -6 -12q0 -22 15 -26h17q2 -3 3 -12q-4 -10 -9 -11q-3 -1 3 -3 q4 -13 23 -24v-11q0 -1 -5.5 -7.5t-5.5 -7.5q2 -1 3 -8l6 -6q-5 -2 -12 -6q-1 -12 -6 -32q-6 -8 -12 -20q-1 -13 7 -20t5 -18q-5 -3 -12 -9q-9 -13 -3 -46l6 -6q-1 -13 3 -38q9 -7 21 -20q0 -10 3 -26q7 -5 14 -12q-3 -8 -3 -23q10 -5 21 -21q0 -1 -6 -23q-4 0 -9 -3v-55 q20 -3 32 -17q-7 -9 -14 -21v-20h-15h-6q2 3 3 11l-6 9q1 -10 6 -32q-4 0 -9 -3q1 -3 0 -8q8 -1 21 -6q0 -6 3 -12q-7 -5 -18 -12q-6 1 -14 0q-3 -14 -18 -34q-15 -1 -43 -9q-3 -5 -9 -12q-4 1 -9 0q-1 -3 -3 -8q-7 -8 -29 -15q-11 0 -32 -3q-10 -4 -26 -9q-50 -6 -96 0 q-1 1 -10.5 4t-15.5 2l-6 -6q-4 -1 -12 1l-8 2q-22 -2 -64 -3q-28 -2 -84 0q-1 1 -6.5 3.5t-8.5 2.5l-17 -6q-10 3 -33 3q-2 -4 -5 -8q-8 -3 -23 0l-26 17q-8 3 -27.5 3.5t-28.5 8.5q-3 1 -5.5 4.5t-2.5 10.5zM287 223q4 0 8.5 -2t8.5 -1l4 3t5 3l6 -9q2 -15 -3 -23 q-7 -2 -15 -15q6 -9 6 -15q0 -5 -3 -8q13 -11 30 -23q11 0 34 -3q3 -4 6 -9q7 -1 17 -6q5 -5 12 -11q7 -2 31 -4q25 -2 31 1q4 8 14 17q10 -1 29 0q1 5 5 12q9 8 21 12q1 0 20 3q11 2 15 8v9q2 9 6 15.5t4 7.5q0 3 -25 15v11h24q-1 -3 3 -8q3 19 3 58q-3 1 -3 8l-20 4t-13 8 q2 11 0 32q-5 5 -11 15q1 4 0 11q0 1 -18 9v-9q-3 -1 -8 -6l-12 18q-7 4 -20 1q-15 -3 -23 -1q-4 0 -21 7.5t-26 6.5l-15 -3v-5q-2 -1 -10 2t-10 3q-4 1 -13 -3.5t-10 -4.5q-9 -2 -19 1.5t-13 3.5q-14 0 -14 -10q0 -4 11 -19q-2 -3 -6 -8h-12q1 0 -5 -6q2 -13 3 -9l20 -11 h-18q-3 -27 12 -47l11 9h16v-12q-4 -2 -9.5 -6t-7.5 -4q-1 0 -4.5 4t-8.5 6h-9q-3 -4 -11 -11v-12zM290 563q12 -9 26 -23q-1 -8 0 -21q5 -4 12 -14q0 -10 6 -23h8q8 -6 21 -12q7 -1 19 3.5t15 5.5q12 -3 38 -3l12 6l33 6q15 5 22 17q1 6 6 14q16 4 40 9v20q6 5 12 12 q4 17 0 32l-3 6q-7 4 -17 14q0 11 -6 29q-4 5 -18.5 8t-19.5 7q-1 8 -11 20v3l-6 3q-14 -1 -41 0q-1 0 -6.5 3t-8.5 3q-1 0 -9 -4.5t-11 -4.5q-17 12 -23 12q-7 -4 -17 -9q-6 2 -15 3q-7 -3 -17 -9v-14l-38 -15q-2 -25 5 -43l6 -3v-15q-6 -4 -14 -11q1 -5 0 -12zM412 677 q1 1 3 2q7 -8 0 -6q-3 1 -3 4zM706 121q6 -3 6 -6q-7 4 -6 6z" />
<glyph unicode="C" horiz-adv-x="626" d="M19 337q3 9 5 30l-5 17q-2 11 1.5 31t1.5 31q-4 10 -3 14q4 4 8 11q1 9 6 30l6 3q-1 7 0 20q5 6 10 17q-1 13 0 39q4 6 9 16q-1 15 3 42q13 13 30 34q-1 7 0 19q2 7 12 10.5t11.5 4.5t9.5 18q6 13 14 14q4 0 12 1l3 6q6 -2 17 0q4 2 10 20q6 15 18 18q10 -1 33 1 q6 4 14 8q12 -2 37 -3q13 6 33 11q20 2 36 -5q7 -10 17 -23q5 1 14 0q6 -6 20 -13q1 -1 8 5q5 1 11 1q7 0 23.5 -2.5t24.5 -2.5t14 1v6q5 0 14 3q1 5 5 11q17 5 35 -10t21 -57h22q2 -5 3 -11q4 -9 3 -12q-2 -12 -10.5 -12.5t-17.5 -1.5q-1 -3 -5 -8q1 -17 0 -50l-6 -3 q-11 -16 -3 -39q-3 -1 -8 -6q4 -5 12.5 -9.5t18.5 -4.5h6.5h4.5q8 0 11 -30q-2 -4 -6 -9h-14q4 -6 14 -19q1 0 -14 2q0 -4 -3 -14q-6 -3 -13 -14q-1 -1 0 -21q0 -10 -12 -15q-6 -2 -14 -2q-26 0 -42 13q-4 11 -16 28q-6 1 -14 6q-4 5 -4 18t-2 18l-14 9q1 9 0 28l-8 13 q-5 1 -11 3q-4 6 -2 16q3 11 2 15q-7 5 -14 14q-3 13 5 17q-2 9 -2 8q-13 7 -34 25q-2 6 -8 14l-31 3q-6 -2 -14 -3q0 3 -6 6v-11q-1 1 -5 -3q-9 0 -28 3q-3 0 -12 5t-16 5q-4 0 -8.5 -2t-10 -14.5t-4.5 -18.5q4 -5 9 -12q-7 -1 -28 -5l-5 -6q-14 2 -37 -3q-2 -1 -10 -23.5 t-7 -29.5l3.5 -6t2.5 -10l-6 -3l-11 -17q1 -4 0 -11q-7 -5 -14 -11q-9 -19 0 -48q-5 -3 -11 -8v-6q6 -5 14 -14q-16 -34 -14 -81q4 -12 8 -28q-2 -8 -2 -28q0 -15 5 -28q4 -2 8 -5q0 -11 3 -31q8 -12 17 -34q-2 -14 -3 -39q3 0 5.5 -3t6.5 -2l10 8q5 1 23.5 -4t21.5 -7 q2 -7 9 -17q8 -5 29.5 -7.5t29.5 -6.5q6 -8 16 -17q1 0 17 3q11 2 20 10q14 11 16 13q16 2 42 14v8l20 14q0 4 2 11q7 5 15 14q2 10 0 21q-3 17 -3 21q8 2 22 11v9q0 2 9.5 21.5t10.5 19.5q7 1 22 6q3 5 8 11q4 2 10 2q28 0 41 -16q1 -5 5.5 -16t19.5 -23q-3 -18 -4 -20 t-10 -13q3 -4 11 -12q-2 -7 -4 -7q-1 0 -2 2q1 -9 0 -9q-5 1 -13 -2q20 -5 38 -12q3 -4 3 -7q0 -8 -20 -14q-34 -11 -36 -12q0 -27 -14 -53q-12 3 -13 3l-9 -14q-4 0 -11 -3q-6 -17 -20 -39q-15 -13 -41 -17q-8 1 -20 0q-6 -9 -20 -20q-9 -3 -25 -1q-19 2 -22 1q-5 0 -19 -6 t-23 -5q-13 7 -36 17q-9 1 -25 6q-6 6 -17 14q-7 -2 -25 0v2q-11 4 -29 14l-25 25v6q-13 6 -33 25q-1 8 -6 23q-6 4 -14 14v5q-6 2 -16 8q-1 6 -6 20q-6 6 -14 20q-7 28 -3 56q-2 7 -3 2v20q-7 4 -16 14v17q-8 9 -17 28zM184 602q3 -1 6.5 -4.5t3.5 -5.5q-2 -1 -5 -1 q-5 6 -5 11zM591 258q0 4 4 3q12 -2 12 -14q0 -3 -4 -3q-6 1 -9.5 5.5t-2.5 8.5z" />
<glyph unicode="D" horiz-adv-x="768" d="M18 754q-3 2 6 17q9 11 36 12q35 1 44 6q4 5 15 11q6 1 15 -2l10 -4q13 -2 33 2q24 3 31 3q9 0 17 -2l5 -6q7 0 24.5 3t21.5 3q12 -3 40 -3q5 3 12 6q15 1 31 -3q8 -5 23 -11q18 2 52 3q11 -5 29 -12q15 -1 46 -9l17 -11q9 0 22 -9q-1 -4 1 -14q4 -2 8 -6q1 -4 4.5 -10 t14.5 -9t16 -6v-6q4 -4 8 -9q-2 -4 -3 -14q9 -7 21 -20q0 -10 5 -23q10 -1 26 -6q-1 -2 3 -6q-6 -24 -6 -25h3q1 -6 6 -18q5 -3 11 -8q2 -6 -2 -13q-2 -3 -3 -7q-1 -1 8 -38v-8l29 -12q0 -4 -3 -11q-4 -1 -14 -3q-6 -33 0 -52h5q-2 -2 -2 -8q4 -4 8 -9q1 -7 -3 -16.5 t-3 -14.5t10 -11.5t10 -8.5v-12l-14 -3q2 -31 0 -37h-6l-11 -17q9 -3 26 -6l3 -9q-12 -3 -35 -8v-12q9 -4 29 -11q-4 -19 -14 -40l-6 3q-2 -1 8 -9q-1 -5 -2 -14q-21 2 -38 -3v-15q4 -2 9 -5q7 1 17 3q4 -4 12 -9v-14q-5 -4 -12 -9q-4 1 -11 0q0 -8 2 -26q-5 0 -14 -3 q-4 -6 -14 -14q-4 1 -9 0q-7 -20 -23 -43q-10 1 -28 0l-6 -6q-12 -3 -32 -5q-15 0 -46 -3q-7 -5 -20 -12q-51 -14 -80 -8q-4 4 -11 8q-27 6 -49 3q-10 -5 -26 -11q-10 1 -26 2l-14 -5q-12 4 -26 8q-5 1 -14.5 -2t-11.5 -3q-11 1 -34 0q-7 -4 -17 -9q-17 -4 -35 0 q-10 1 -28 0q-32 -5 -41 0q-1 5 -5 14q-5 2 -12 6v6q-4 2 -8 6q-12 18 -12 36q0 9 2.5 14t17.5 18q7 3 20 0l17 -3q8 1 36 4q24 3 36 2q23 -2 20 -3q2 4 6 9q5 0 14 3q6 4 10.5 17.5t4.5 19.5q-1 11 -6 29l-6 6q-2 12 4 25q7 17 8 20q1 9 -3 20q-3 8 -6 15q-3 19 0 34 q4 5 9 12q2 11 -3 29t-3 28l9 11q1 10 -5 28.5t-4 29.5q5 6 11 17q8 22 3 49q-4 7 -8 17q-4 22 0 43q-1 4 0 9q-13 25 -12 31q1 5 7 14t6 17q0 6 -1 12q-7 7 -18 20q-2 6 -5 29q-36 0 -52 3l-6 6q-20 5 -34 5q-8 0 -20 -4.5t-17 -4.5q-6 0 -12.5 4t-12.5 26.5t-10 24.5z M279 605q3 -1 12 -3q2 -42 0 -54q-2 -3 -4 -5q-3 -5 -2 -10q7 -6 14 -17q1 -3 0 -27t-4 -27t-7 -6q1 -5 0 -14q19 -5 34 -12v-6q-7 -8 -23 -17l3 -3q1 -6 0 -17q-5 -3 -11 -9v-11q7 -5 23 -20q8 12 14 13q2 0 20 -4q-2 -7 -6 -15q-6 0 -17 -3q-3 -3 -9 -8q-5 -1 -14 -3 q0 -4 -4 -22q-3 -14 -2 -18l8 -6q7 -7 4 -20l-12 -14q-1 -6 2 -18q4 -15 4 -17q4 1 12 0l2 -6q6 0 18 -5q6 -10 14 -20v-12q-15 -2 -34 -8q-1 -5 0 -12l11 -17q26 2 20 3l14 -9q10 1 29 0q3 0 19 -7.5t24 -6.5l6 6q6 -1 17 0v5q5 4 14 9q7 0 21 6q1 3 5 11q16 21 23 49 q17 4 20 6q8 4 12 14q-1 6 3 17q4 1 11 6q2 3 0 14q4 15 3 15q3 0 8 3t6.5 14t2.5 14q7 7 14 20q6 25 -5 32q1 5 3 14q1 6 2 17q-2 9 -2 15q7 20 0 20q9 0 -3 3q3 24 3 25l-12 20l3 12h6q-1 5 0 14l-15 12q10 25 3 48q-11 14 -23 35q-1 6 9 26q-5 3 -12 11q2 5 3 12 q-4 0 -11 2q-10 11 -35 29v3q-7 0 -22 3q-16 14 -35 29q-6 -5 -14 -9q-26 -5 -75 -3q-7 0 -20.5 8t-22.5 8q-4 0 -7 -3t-7 -10q-4 -1 -9 -3v-26q-2 -2 -8 -6q1 -8 0 -25l-6 -15h-6q1 -5 0 -14zM346 465q0 3 2 8q4 0 11 3h15l-2.5 -10t-12.5 -7q-12 -2 -13 6zM348 387 q0 2 11 9q8 -3 18 -12q-1 -3 0 -8h-15zM371 212q1 12 3 12q3 -2 -3 -12zM669 206l6 -2q-3 2 -6 2zM698 307q3 5 8 20q1 -5 0 -20h-8zM742 354q0 8 7 10q4 1 5 -2q0 -2 -2 -5t-5 -4q-5 -1 -5 1z" />
<glyph unicode="E" horiz-adv-x="718" d="M13 739q0 14 9.5 21.5t31.5 7.5q6 0 18 -1h19q17 0 29 4q5 5 14 12q5 1 18 -3q11 1 35 3q2 0 33 -3q24 -2 36 0l26 8v3q11 -1 29 -3q10 5 23 9q11 1 25.5 -3.5t15.5 -5.5q7 -1 16 2l10 4q6 -1 15 -3q10 3 23 6q26 1 69 3q28 2 35 0q6 -8 20 -17q22 0 61 -9q4 -6 12 -15 q4 1 9 0v-43h11q0 1 -6 3l3 26h-3q1 0 -3 12q6 -3 8 -3.5t7 -2.5v-12h6q4 -1 11.5 -12.5t11.5 -13.5q3 1 9 0q1 -5 5 -12q-4 -4 -8 -11v-30q-1 -7 -29 -17v-29l-4 -6q-3 -6 -2 -11q3 -3 6 -9q6 0 17 -2l-11 -32q-4 0 -9 -3q2 -9 3 -26q-1 -3 -12.5 -17t-13.5 -15 q-6 -2 -12 -2q-24 0 -29 16q1 6 0 18q-24 7 -26 8q-10 5 -10 18q0 5 1 11q1 3 6.5 14.5t5.5 14.5l-44 67q-11 3 -24 15q0 4 -2.5 10.5t-19.5 15.5v2q-7 2 -22 -2q-9 -3 -19 -6q-7 1 -20 0l-9 -9q-10 -2 -29 15q-5 -3 -11 -6q-11 -15 -3 -47q-3 1 -9 -3l-5 12q-6 1 -8 -2 q-3 -6 -7 -7q-11 1 -32 0q-5 -2 -11 -5q8 -27 2 -41q-2 -5 -11.5 -12t-11.5 -11q-1 -11 -6 -32l15 -6q4 -3 9 -6h14v-5q-1 -4 -6 -9q-5 1 -14 0q0 -4 -3 -12h-9q-3 -26 -3 -35q-3 -1 -8 -5q7 -5 5 -6q13 0 41 3h12q-3 0 20 -3q0 3 3 9q2 0 6 2q-1 5 0 12l14 3q0 6 3 20 q4 2 9 6q-2 6 3 17q6 3 17 9q2 9 10 23t29 14t48 -14q2 -2 3 -8q-3 -2 -6 -3q0 -25 6 -29q6 0 17 -3q3 -4 9 -9q2 6 9 18q8 -5 23 -12v-12h-38q1 -7 0 -20l-9 -3q5 0 2 -17q-2 -21 -2 -23q3 -2 6 -3q2 -5 6 -12q4 -1 15 -3q-2 -7 -6 -26q-2 -7 -6 -14q-8 0 -23 -3 q-2 -4 -9 -9q3 -13 3 -28q0 -21 -12 -68q1 -6 -3 -17l-14 -9q-11 -1 -17 3q-2 6 -6 15q-9 5 -23 20q-1 14 -9 41q-8 4 -20 17q-1 9 -9 23q-8 5 -26 3q-16 -1 -23 -6l-6 -8q-3 -1 -29 2q-9 -15 -10 -16l-16 -10l-3 -5h-3q-2 -7 -2 -13q0 -19 34 -45q-16 -8 -35 -21 q1 -12 -3 -32q2 -5 6.5 -10t15.5 -4q14 2 19 0q0 -2 6 -6v-14q-4 -2 -12 -9h-6l-11 -17h-12v-35q21 -1 55 -9q3 -7 3 -12q6 -11 12 -11q10 7 23 14q9 2 19 -2.5t18 -2.5q4 0 15 7t23 7l22 -3q16 -2 24 0q7 6 18 12q6 -4 26 0q7 4 14.5 17.5t11.5 17.5q10 6 23 26 q2 7 -1.5 18.5t-1.5 18.5q6 4 15 12q0 6 3 17l6 3q-3 5 -3 20q4 5 8 12v15l6 2q4 10 12 27h11q4 -4 38 -32l3 -67q-4 -4 -9 -12q8 -9 18 -23q-16 -20 -15 -29l6 -6q-1 -8 3 -23l8 -3v-29q2 -12 9 -34q-7 -3 -17 -9q0 -11 -6 -26q-3 -3 -32 -13t-35 -10q-25 -4 -49 0 q-1 0 -8.5 3t-11.5 2q-7 -4 -18 -8q-17 -3 -29 0l-5 5q-4 1 -11.5 -3.5t-9.5 -4.5q-8 -2 -17 -2q-8 0 -36 4q-22 3 -37 1q-9 -5 -23 -9q-6 0 -19 4t-18 5q-17 -4 -58 -6q-20 4 -53 9q-1 0 -13 -3t-13 -3q-86 -4 -121 14q-2 4 -6 9q-3 1 -12 3q-3 5 -6 11q0 1 9 35q49 2 38 3 l8 -6q27 -2 41 0l9 9q13 0 40 6q2 4 6 9q5 -1 15 2q1 4 5 9l-6 31q-5 20 -2 33q0 1 8 21q5 14 3 25q-7 11 -14 32q6 17 9 58q-1 3 -5 13t-4 13l9 18q3 16 0 37l-6 9q-3 13 -3 46q2 7 3 24l-6 5q1 12 0 35q-4 8 -9 20q0 6 4.5 14t4.5 10q0 5 -3 11l-3 6v35l-6 3q4 10 6 34 q0 5 -10 25t-13 22l-11 0.5t-18 -0.5q-27 -4 -35 0q-3 5 -11 11q-8 2 -20 -1t-18 -1q-9 2 -16 14t-7 26zM363 519q3 7 6 17l7 -16q0 -5 -7 -4q0 -1 -1 -3q-1 1 -2.5 3.5t-2.5 2.5zM575 414q1 10 3 9q3 -1 -3 -9z" />
<glyph unicode="F" horiz-adv-x="707" d="M17 49q0 7 11 20v6q26 3 64 8l28 2q27 1 40 2q3 -1 7 -1l-72 -5q5 3 5 2q4 -3 12 -8q7 9 17 20h12q11 2 15 8.5l8.5 13.5t10.5 15q2 8 0 31q-3 23 -6 30q-4 3 -8 8q-4 14 -3 38q2 27 0 37l-6 12q-2 14 5.5 43t6.5 37l-6 6q-6 16 -3 40q1 5 10 32q9 23 7 35q-4 3 -8 11 q-3 11 0 29l5 6q5 17 3 34q-5 12 -11 35v37q-3 1 -6 3v9q3 0 6 17q-6 2 -3 40q-11 2 -41 -1q-29 -3 -45 1l-18 15q-6 -1 -17 0q-3 2 -9 5v15q14 3 46 11v6q6 -2 21 -3q12 2 23 29q42 -3 46 -3q3 0 21 5q15 5 26 5q5 0 9.5 -1t15 -8t20.5 -7q4 2 11 3h6q-2 12 0 14l9 6 q48 -8 63 -6q9 6 26 12q11 1 37.5 -3.5t34.5 -5.5q10 0 29.5 3.5t29.5 3.5q6 0 13 -1q21 -3 57 -17q5 -4 12 -9q3 1 8 0l12 -17q1 -1 20 -8q12 -5 13 -15q0 -5 1 -17q9 -12 23 -35l-5 -11q-19 0 -32 -12q0 -14 3 -43q0 -3 14 -23q-7 0 -8 -17q0 -15 2.5 -24.5t11.5 -17 t12 -10.5q9 -14 11 -23q-1 -5 0 -12q10 -6 20 -14v-9q-14 -4 -28 -9q-17 -6 -24 -14q1 -3 0 -8q-6 -16 -20 -23v-3q-6 -4 -21 -4q-15 1 -22 4q-3 5 -11 11q3 -1 -23 -3q-3 -1 -6 -5q-1 -4 3 -9q2 -11 -6 -15l-14 -5v-12q-2 -1 -3 -3q4 -2 11 -5q-1 -5 0 -12q-29 0 -52 -8 q7 -9 15 -23l-6 -12q1 -10 0 -29q-7 -6 -17 -17q7 -16 7 -21q0 -2 -5 -5.5t-6.5 -9.5t-4.5 -13q-5 -3 -12 -3q-2 0 -31 9q-11 0 -29 6v2q-6 4 -6 12q-1 13 -2 17q-4 4 -9 12h-3q-1 3 0 23q2 41 0 46q-3 0 -9 3q-1 5 -5 14q-8 7 -34 7l-38 2q-4 -3 -9 -9q-1 -9 -3 -23 q-7 -2 -8 -3q-6 -8 -6 -14q0 -4 4 -10.5t4.5 -11.5t0.5 -28q0 -25 -2 -28t-6 -8l-7 -9q10 -1 9 -29q-3 -28 0 -40q5 -16 26 -29q4 -4 8 -9q6 2 17 3l3 -6q9 0 17 3.5t12 2.5q11 -8 32 -17q7 2 26 3l26 -12q13 -6 43 -31l-29 -20v-6q-1 -4 -12.5 -10t-13.5 -10v-6 q-3 -2 -30 -2q-26 0 -34.5 3t-18.5 8q-13 2 -33 -1q-23 -3 -31 -2q-31 1 -23 3q-8 -6 -23 -12q-9 -1 -26 6.5t-23 7.5q-5 1 -10.5 -2t-9.5 -3q-3 -1 -15 2t-14 3q-17 -2 -48 0l-18 15q-12 5 -37 20zM247 596q5 -5 12 -15q1 -7 -3 -22.5t-3 -23.5q1 -21 6 -29q3 -1 8 -5v-32 l20 -7q14 -6 23 -6q5 0 9 2v2q6 4 7 8t2 4q5 -1 17 3q4 2 7 15.5t4 15.5t21 15q2 7 -1 18t-2 16q3 5 8 12q2 4 6 29q34 13 42 13q6 0 10 -2v-6q10 -4 23 -17v-6q8 -4 23 -14q3 -4 9 -11q-9 -1 -6 -3h14q1 -4 6 -9q0 -3 -9 -9q1 -2 0 -8q5 0 15 -3q-1 8 0 23q7 5 17 14 q1 3 -2 32t-4 32q-3 7 -12 10q-15 6 -18 8t-8 13.5t-8 14.5q-3 -1 -8 0q-6 5 -15 11q-5 0 -14 3q-3 4 -6 9q-16 -2 -46 0q-2 0 -15 7q-9 6 -20 4l-2 -6q-14 -5 -38 -5q-20 -1 -29 3l-3 5q3 0 -23 -3q-1 -2 -2 -8h2q3 -1 15 -23q-10 -8 -23 -23q-2 -4 -4.5 -23.5t-1.5 -22.5z M491 467q0 -2 3 -5.5t3 -6.5v-9l9 -3q2 5 9 29q-6 0 -18 3q-6 -5 -6 -8zM500 435q1 -9 2 -17q0 -3 10 -12q6 0 3 3q4 -3 4 2q1 3 -1 9v6q-6 2 -18 9zM523 498l2 -12.5t10 -7.5q3 -1 3 4q0 3 -1 8q-1 2 -2 5q-4 0 -12 3z" />
<glyph unicode="G" horiz-adv-x="693" d="M17 366q9 38 15.5 40.5t1.5 3.5q-4 2 -8 15.5t-4 17.5q1 1 6 10.5t3 16.5q-11 14 -9 15q7 2 16.5 36.5t9.5 54.5q0 8 -2 10q9 8 21 24q2 12 9 35q2 3 12 15q7 8 7 20q0 4 3.5 6.5t10.5 6.5q-1 7 3 21q3 -1 9 0q1 5 6 12q5 0 14 3q9 13 30 35h9q4 5 9 9q7 2 17 0 q12 -3 16 -3q6 0 12 3q2 2 12 24q12 -3 26 -6q4 0 15 4.5t15 4.5q36 4 54 -24q0 -5 6 -12q13 2 41 0q8 -8 21 -18q5 1 15 0v6q4 3 15 12l-3 9q9 0 24 3q-3 2 5 9q2 2 3 6q9 0 24 -6l12 -44h3q-1 -9 0 -24q3 -1 6 -3q1 -6 6 -21l-15 -12q-2 3 -3 -6q6 -3 12 -9q-1 -3 0 -9 q-6 -4 -18 -15q4 -12 18 -29v-9l-12 -9q10 -22 9 -30l-3 -4.5t-3 -7.5q7 -5 15 -15q-1 -4 0 -12q-8 -4 -24 -14v-6q-1 -3 -10.5 -10.5t-13.5 -7.5q-8 -1 -14.5 5.5t-11.5 12.5q-12 2 -27 11q0 8 -3 24q-7 8 -15 21v9q-7 4 -15 15q4 5 6 21q-9 14 -21 35q0 5 -3 18l-9 9 q1 4 0 9h-6q-3 5 -8 12q-9 6 -38 17q-32 12 -43 10q-9 -6 -24 -12q-7 1 -20 0l-9 -12q-10 -4 -30 -15q-9 -9 -30 -24h-3q0 -7 -3 -21q-3 0 -9 -3q-3 -10 -9 -23h-14q3 -2 14 -3q-1 -7 -3 -18q-5 -1 -11 -3l-3 -33q-8 -10 -15 -24q2 -5 3 -20q-6 -7 -12 -18q2 -7 3 -24l-6 -9 v-33q0 -2 -3.5 -12.5t-2.5 -13.5l12 -15q2 -11 -0.5 -33.5t0.5 -32.5q4 -4 9 -12q-2 -10 0 -29l20 -18q-2 -9 -8 -27q1 -2 23 -21q2 -5 0 -10q-3 -7 -3 -11q5 -3 9 -9q4 -17 18 -44q6 -5 15 -5q5 0 17.5 2.5t21.5 2.5q8 -15 18 -24q5 4 14 9q5 1 23.5 -3t20.5 -6.5t4 -8.5 q6 1 15 0q-1 7 -6 27q4 3 9 6q7 -1 21 0q2 1 12.5 11.5t10.5 12.5q0 13 6 35h6q10 4 15 30q-1 12 3 42l3.5 2.5t2.5 6.5q-5 3 -12 9q1 3 0 8q-4 6 -12 15q-14 -2 -28 -5q-21 -2 -34 2q-7 8 -21 18q-5 0 -15 3q0 4 -3 9q-1 1 -9 3v9q7 4 18 12q1 6 6 15q11 7 36 7q30 -1 38 2 q3 4 6 9q5 0 15 3q7 6 21 14q7 1 17 -5l10 -6q10 -2 29 4t30 4q18 -7 48 -14q13 4 42 6q5 -2 10 -9.5t7 -8.5q11 -1 33 -6q13 -4 42 -27q-2 -4 -6 -9q-5 0 -12 -3q-4 -12 -18 -30q-12 0 -39 -3q-14 -3 -47 -9l3 -8l-15 -9q1 -4 0 -9q-5 -2 -12 -6q-2 -5 -3 -16q-1 -12 3 -14 h6l9 -3q-5 -4 -5 -9q0 -4 6.5 -11t7.5 -10q2 -11 -4 -20q-4 -5 -8 -9q1 5 3 -21q-3 -11 -3 -36l9 -9q-1 -5 0 -15q-9 -4 -24 -12l-3 -9q6 -3 6 -8q0 -8 -5 -8q-1 1 -1 2q-4 -7 -12 -15h-6q1 -4 0 -9q-1 -2 -8.5 -12.5t-9.5 -11.5q-7 -3 -15 -3t-35 15v6q-7 3 -31 3t-32 -3 q-7 -9 -26 -21q-11 -3 -30 -3q-17 0 -51.5 3t-46.5 3l-10 -2t-14 -1q-7 2 -15.5 17.5t-14.5 18.5q-16 0 -41 6q-6 3 -12 41q-20 5 -23 6q-15 6 -15.5 13.5t-3.5 25.5q-6 3 -12 9q-2 7 1 15q2 8 -1 15q-10 6 -21 26q4 6 6 21q-4 7 -9 15q3 7 3 24q-4 6 -9 15q3 7 3 26 q-3 6 -9 15h-6v12l9 3v9q-16 14 -11 33zM317 89l3 -9q-2 9 -3 9z" />
<glyph unicode="H" horiz-adv-x="730" d="M16 724q2 6 1 6l15 3q5 6 14 12q17 -2 50 0q3 7 11 6v-6q18 -3 21 -3v3q1 1 2 6q2 0 4 1q-15 2 -24 2q1 16 0 17l12 6h14q5 -9 9 -18q20 5 29 3q4 -1 11 -3q6 5 15 9q5 1 17 -3q15 -21 26 -17q3 4 6 9q6 -2 15 -3l3 8h32l20 -17q1 -6 0 -15q-4 -1 -9 -2q0 -6 -3 -18h-23 q-6 -7 -20 -17h-18q-7 -3 -23 -9q-4 -18 -17 -35q4 -7 8 -17q-1 -7 0 -18q7 -2 15 -8q-1 -4 0 -12q2 -5 20 -23q-5 -8 -8 -14q-11 1 -18 1q-12 0 -12 -4q0 -5 18 -18v-8q-6 -3 -15 -9q0 -2 -2 -18q8 -5 20 -11q7 -1 11.5 3.5l5.5 5.5q17 3 32 -9q4 -3 5.5 -11.5t2.5 -10 t27 -16.5l20 -3h32q5 9 17 21q10 2 17 2t18 -3t21 -2q8 4 20 8q8 0 23 3q2 7 6 18q4 1 9 5q-1 10 0 27q0 3 6 25q4 15 2 30l-6 8q-2 13 0 38q1 1 4 11.5t2 14.5q-5 5 -11 15v14q-7 1 -24 3q1 4 -2 9v-6q-36 -10 -47 -6q-3 5 -9 12q-3 0 -11 3q-16 9 -23 49q5 3 11 9v8 q5 1 12 3q0 4 3 9q30 23 43 23q4 0 11.5 -5.5t9.5 -6.5q11 -2 26 2.5t26 3.5q11 -4 29 -9q22 3 63 3q8 -1 38 -17q8 -2 18 -9q1 -2 11 -52l-6 -9q-2 -2 -11 -2q-1 0 -10 5t-16 3l-9 -11h-9q-3 -6 -8 -12q-4 2 -12 3q-3 -10 0 -12q-18 -12 -23 -26q-11 -28 -3 -58l6 -5 q0 -9 -3 -16q-6 -10 -6 -11q1 -4 0 -11q-5 -5 -12 -15q-1 -8 21 -23q-12 -45 -12 -43l12 -15q0 -6 5 -17q6 -2 12 -6q-1 -4 0 -12q-5 -3 -12 -8q0 -1 -2 -23l-9 -3q-3 -7 -3 -47t3 -52q4 -3 9 -9q1 -11 2 -20v-6l-5 -6q0 3 5 -11v-9q26 -4 38 -3v-20l-38 -6q-6 -22 -5 -26 q4 -5 8 -11v-9q6 -8 24 -9h29q-1 -2 2 -9q-3 -1 -8 -14h-6v-9q16 -3 46 -11l24 -18q-7 -15 -6 -17l20 -15v-8q-7 -2 -23 -9l-18 -15q-30 -12 -72 -11q-9 1 -17 2q-14 2 -21 1q-4 -3 -11 -6q-18 5 -52 9q-12 -4 -29 -9q-43 -3 -93 20q-2 4 -3 9q2 2 11 20h6q0 7 3 21 q3 5 17.5 18t21 15t19.5 7q2 4 6 9q13 3 32 14q2 4 4.5 21t1.5 23q-6 4 -12 11q1 5 0 12q6 2 15 12q-1 22 -3 52q-9 4 -21 14q0 5 -3 12q5 5 15 11h9q1 9 5 24l6 3q-2 3 -3 11q-13 1 -34 6q-5 2 -9 16t-18 16q-8 1 -25 -3t-25 -4q-6 0 -10 1l-12 12q-6 -1 -17 0q-28 2 -38 0 l-15 -12h-8q-2 -4 -6 -9q-8 0 -23 -3q-4 -3 -12 -8q6 -17 0 -38q-7 0 -20 3l-3 6q-4 -2 -15 -3v-12l-5 -6q2 -5 3 -20q-5 -9 -9 -20q0 -5 3 -8t3 -4q-1 -5 0 -14q-5 -1 -8 -3l-13 -9v-11q8 -6 18 -18q2 -9 -2.5 -29.5t-9.5 -28.5q-1 1 -6 9q-15 -5 -23 -5q-10 0 -29 14 q1 5 3 31l-9 3q-1 10 3 21t3 20q0 1 -3 11.5t-3 17.5q4 12 9 32q0 24 9 69q-7 0 0 15q-1 3 3 9q2 1 -7.5 21t-10.5 25q-2 15 0 32q3 28 3 29q7 1 3 3q-1 1 -5.5 22t-3.5 27l6 6q2 7 -3 29q1 7 0 11q5 -1 5 8t-5 10l6 23q5 20 3 35v14q-13 13 -29 26q-1 1 -20 -3q7 1 -9 3 l-12 -3l-5 6q-19 0 -50 9q-3 3 -1 8zM35 41q15 8 17 11q6 5 12 18q9 -22 26 -22q8 0 23 4q1 4 3 9q-4 1 -17 3l-3 11q10 0 29 6q4 8 14 20q6 1 18 6q1 4 5 9q5 0 15 3q0 4 6 9q4 0 11.5 -4.5t8.5 -4.5q6 1 17 0q3 -4 6 -9q9 1 26 0l9 -9q7 -1 38 6q6 -14 20 -37q4 -3 14 -9 q5 -8 5 -24q1 -18 -5 -23q-4 0 -14 -2q-6 -4 -15 -9q-16 -3 -61 3l-8 3t-9 3l-12 -6q-26 -4 -52 -3q-26 -3 -75 0q-11 2 -27 17q-22 18 -25 21zM214 75q2 -4 6 -14q4 0 9 -3v12q-5 1 -15 5zM219 148q0 8 10 14t9 6q8 0 15 -8.5t8 -8.5l9 3l-2 1q0 2 10 -1q0 -5 3 -12h-20v-6 q-3 -4 -9 -8q-10 -3 -21.5 4t-11.5 16zM226 357q4 -20 3 -20l5 1t12 1q0 2 2 8q1 4 -5 7q-5 0 -17 3zM259 781q0 4 5 4t5 -4t-5 -4t-5 4zM322 472q-3 7 0 12q0 -4 3 -9l9 -4l-4 1h-8zM322 733q6 17 7.5 19t15.5 7q3 -2 6 -5l-6 -26h-15q0 1 -8 5z" />
<glyph unicode="I" horiz-adv-x="537" d="M12 711q0 16 10 33q4 2 9 6q-1 6 3 16l16 14q14 14 33 14q4 0 21 -2q14 -1 25 0q9 4 22 8q5 0 13 -4t9 -4q10 -2 20 -2q12 0 35 2.5t35 2.5q9 0 16 -0.5t28 -7.5t31 -7l23 9q29 3 47 0q6 -4 15.5 -8t23.5 -4q6 0 17.5 1t16.5 1q22 0 34 -15q3 -3 8 -9q2 -6 2 -13 q0 -32 -16 -40q-8 1 -22 -3q-3 -1 -7 -11.5t-16 -13.5q-15 -4 -37 -2q-28 2 -33 2q-6 0 -21.5 -6t-22.5 -5q-4 4 -9 8q-2 1 -3 1h-4q0 -1 4 -3q-5 0 -15 -8q-4 -7 -2 -18q2 -15 1 -22q-1 -1 -9 -6q1 -4 0 -11q7 -7 20 -19q-7 -7 -14 -17q2 -6 -3 -25l-3 -6h3v-11 q1 -2 8 -9.5t6 -15.5h-3q-1 -8 -5 -20l-6 -3q0 -6 -3 -16q-6 -4 -14 -14q-2 -11 8 -21l15 -13v-11q-4 -1 -14 -3l-3 -8q6 -5 5 -6l-11 -8q-1 -9 6 -17q8 -11 8 -14q2 -10 -2.5 -24t-4.5 -20q0 -4 2 -9q0 -1 16 -17q-9 -30 3 -50q8 -4 17 -12q-2 -3 0 -14q4 -2 8 -5 q3 -14 -2.5 -15l-11.5 -2q-1 -4 -2 -11q5 -5 11 -14q-1 -6 3 -17h5q3 -4 9 -7t23 -3q17 1 7 2q15 -4 40 -9q7 3 25 3q3 0 30 -14.5t29 -17t8 -46.5q1 -4 0 -11q-4 -7 -15 -9q-16 -4 -19 -5q-4 -6 -11 -12q-7 1 -28 0q-2 0 -12.5 -4t-18.5 -4q-9 3 -22 6q-43 5 -92 5 q2 0 -54 -2q-35 -2 -55 2q-10 5 -26 11q-11 2 -25 -3q-18 -8 -19 -8q-26 -5 -62 9q-9 5 -42 14q-8 26 -5 36q1 4 23.5 28t26.5 25q9 2 21 2q13 0 36 -4t30 -4q6 3 14 6q10 -2 28 -3q6 2 8 9q2 12 3 14q8 6 17 16v20q1 6 2 6v5q0 5 -4 7.5t-4 3.5q-2 10 4.5 24t6.5 18 q1 7 -5 16q-3 5 -5.5 11t-2.5 13q0 10 7 29q5 16 3 29q0 1 -8 14q-1 6 2.5 15.5l3.5 9.5q6 48 2 76h3q-1 4 -3 14l9 11q0 3 -3 8.5l-3 5.5q-1 7 2 19l4 12q-3 4 -3 14l14 14q-15 24 -15 53q0 6 2 10.5t7 11.5q-3 3 -11 9q-5 16 -19 36h-3v6q-5 0 -17 3q-3 2 -8 8 q-6 0 -19.5 -5.5t-20.5 -5.5q-12 0 -33 5l-6 6q-26 -1 -78 6l-8 8h-6q-2 1 -2 6z" />
<glyph unicode="J" horiz-adv-x="641" d="M15 193q-1 9 4 18q2 6 5 11q1 4 -2.5 8l-3.5 4q1 -5 9 36q8 38 18 50q8 5 27 27q1 5 3 12q3 0 12 2q2 4 6 9q6 2 17 6q19 8 35 8q19 0 33 -11q8 -5 33 -50h6q1 -5 -2.5 -13l-3.5 -8q3 -5 3 -21q-10 -11 -24 -29q-2 -14 -15 -33q-6 1 -17 0l-3 -6q-5 0 -15 -3 q-5 -4 -15 -11q5 -19 -6 -33q7 -2 21 -9q2 -4 6 -9q7 0 21 -6l-3 -6q0 -1 4 -3t4 -6v-3q6 1 15 0q4 -3 9 -8q8 -9 21 -18q6 -2 37 5t34 10q4 10 15 26q10 1 30 6q5 3 8 16q5 17 6 20l18 15q1 4 1 7q0 7 -8 20t-5 26q6 4 12 12q-2 4 -3 15l6 3q-2 21 -3 23.5t-12 11.5 q7 32 -3 56q3 2 18 3v45q-5 5 -12 15v8q7 6 15 15q1 5 1 11q0 12 -19 49q27 33 24 56l-12 21q4 21 3 65q0 2 -6.5 9.5t-5.5 16.5q4 7 9 18q-3 5 -9 12h-12q-8 4 -20 9q-7 -2 -24 -3q-10 4 -24 9q-6 -1 -18 0q-5 6 -14 15q-5 -1 -12 0q-1 0 -2 11q0 3 -1 4q4 4 9 8q-2 4 -3 9 q3 5 9 12q1 0 11 -9q4 0 12 6t9 6q13 -3 42 -3l5 3t10 3l5 -6q30 -8 39 -6q5 8 18 18q-1 0 26 -3q9 1 24 0l9 -6q9 2 33 0q7 -6 23 -15q18 -5 42 -6q26 3 62 3l9 -9l3 -3q1 -3 0 -23h-15q-2 -4 -5.5 -7.5t-35.5 -10.5l-15 -3q-1 2 -3 3l-6 -6l-26.5 -4t-18.5 -11q1 -6 0 -18 q-8 -5 -17 -17q-2 -7 2 -17.5t4 -12.5q-4 -10 -6 -24l3.5 -7.5t2.5 -12.5q-6 -4 -12 -12q-1 -3 4 -10.5l5 -7.5q1 -11 -6 -21q-4 -23 6 -26v-6l-9 -21q6 -5 17 -15q-7 -8 -14 -21q-2 -7 3 -13.5t6 -6.5q-2 -11 -3 -27l8 -6v-15q-8 -10 -20 -23h-3q-1 -2 6 -6l-12 -27 q6 -6 21 -18v-15l-9 -3q-9 -58 -9 -59q1 0 15 -3q-1 -2 3 -6q-3 -5 -9 -21l-6 -2v-15q-2 -11 -21 -30q2 -20 0 -30h-6q-1 -6 -6 -20q2 -9 0 -12q-7 -5 -18 -15q-4 -13 -20 -33v-3q-13 -1 -39 -8q-6 -8 -18 -18h-11q-4 -6 -12 -12q-5 -1 -34 -2.5t-32 -0.5l-8 6q-12 1 -32 -1 q-25 -2 -33 -2q-14 0 -24 3q-2 4 -6 9q-8 -1 -24 3q-5 10 -22 22q-5 -1 -16 1q-6 3 -22.5 22t-18 26l-4.5 21q-4 1 -9 6q-10 16 -12 26q3 9 3 30q-5 8 -12 21z" />
<glyph unicode="K" horiz-adv-x="776" d="M16 745q0 21 8 35q2 1 5 2q2 5 6 9q12 4 29 2q20 -3 27 -2l6.5 3.5t10.5 2.5q9 -7 27 -15q6 0 15.5 6t13.5 6q8 1 18 -3.5t11 -5.5q6 0 15.5 4.5t13.5 4.5l9 -6q17 0 52 -3q1 0 16 -4q12 -3 19 -1q7 5 18 11q19 7 47 0q-1 0 3 -14q-6 -3 -8 -4.5t-4 -7.5q4 1 12 0 q2 -4 5 -12h6l21 12q-1 7 10 16q6 -1 19 1q3 6 9 12q7 3 16 3q7 0 21.5 -2t21.5 -2q8 0 14 1q3 3 8 6q23 3 38 0q6 -4 15 -9q6 0 14 3t9 3q6 0 11 -3t10 -3q20 5 44 9v-3q3 -4 8 -9h18q9 1 12 -8q5 -17 0 -44q-1 -4 -3 -3v-6q-25 -1 -50 -3q-4 -5 -12 -12q-8 1 -23 0 q-7 -5 -18 -11q-9 0 -26 -3q-2 -6 -9 -15q-5 -1 -14 -6q-1 -5 -9 -13q-2 1 -9 -1l-17 -21q-2 -7 1.5 -18t3.5 -15q0 -6 -2 -10l-3 -3q-37 -13 -37 -30q0 -3 -1 -5q-8 -5 -18 -15q2 -6 0 -18q-10 -4 -23 -17q1 -7 0 -20q-8 -5 -18 -15q1 -7 0 -21q-4 -2 -8 -5v-6 q-9 -1 -21 -3q2 -22 12 -56q6 -2 14 -8q-2 -4 -2 -15q5 -3 11 -9q0 -4 3 -14q7 -6 18 -18q1 -6 6 -17q10 -7 23 -18q0 -8 3 -23q5 -6 11 -15v-6q7 -1 27 -5q-1 -9 0 -24q1 -5 38 -26q0 -6 3 -15q-2 -5 -3 -11q1 -6 18 -23.5t24.5 -21.5t22.5 -3q19 2 25 1q5 -4 12 -9 q8 1 23 0q4 -5 12 -12q18 -2 47 -17l8 -15q1 -6 3 -17q2 -2 3 -5q-1 -6 -3 -7q-6 1 -14 0v-9l-15 -11q-14 1 -41 0q-5 -6 -11 -12q-9 -2 -22 5t-19 7q-10 -4 -24 -9q-12 -2 -131 3q-21 -4 -64 -3l-3 6q-6 0 -18 3l-11 11q-15 -8 -32 -14l-3 -6q-7 2 -21 3l-12 -4 q-9 -3 -17 -2l-3 6q-3 2 -23 3q-39 2 -50 0q-6 -4 -15 -9q-23 -4 -55 3l-9 6q-12 1 -38 -2q-29 -4 -39 -4q-18 0 -28 6q-1 4 -6 10l-11 13q-4 19 29 26v9q-2 -1 -6 3q-7 -1 -23 -3l-3 6q5 1 11 3q4 11 18 26q7 3 23 3h18q13 -1 19 -1q37 0 42 19q2 6 -3 27.5t-9 24.5l6 12 q2 8 -1 20.5t-2 20.5q1 2 6.5 12t5.5 20q0 7 -8 26q-6 16 -4 29q6 7 12 18q5 23 -3 49l-9 9q-12 26 -11 27q2 2 17 26q1 4 -2.5 10.5l-3.5 6.5q-6 39 15 91q-4 4 -12 14q7 7 15 21q0 3 -6 17.5t-6 17.5q3 10 6 23q-5 5 -12 15q1 8 0 23q-4 11 -18 12.5t-28 2.5q-9 6 -27 14 q-13 0 -41 3q-13 4 -13 30zM216 651q0 -1 1 -18t2 -20q5 -4 12 -12q-11 -18 -9 -26q8 -6 18 -17l-6 -12q-1 -6 0 -23v-9h-6v-12h-3q-2 -12 5.5 -41.5t6.5 -45.5q3 -2 8 -6q8 -11 9 -11q8 -1 15 -1q-1 9 3 26q7 4 16 16q-1 4 1 14q3 6 15 14h9v3q3 4 8 9q4 -1 9 0l9 23h6 q-1 5 0 12l26 12q2 12 12 35q7 2 17 8q13 20 12 62q30 9 30 28q0 12 -16 39q0 5 -5 14h-9l-18 15l-20 -12v-3q-12 -3 -50 0q-14 -4 -41 -11q-8 0 -23 -3q-17 -9 -35 -47q-9 1 -9 0zM240 166q0 -1 1 -7.5t2 -9.5h5l-5 -9q3 -2 8 -6q3 -10 12 -23h18l20 -12q7 -1 15 -1t31 3 q18 3 30 1l6 -6q21 -5 38 0q5 7 14 15q7 1 21 6q8 4 8 12q0 10 -18 31.5t-20 26.5q-1 7 2.5 15.5t0.5 16.5q-8 8 -20 23q-2 13 -12 35q-5 7 -18 9q-17 4 -23 6q-13 9 -13.5 13t-3.5 10q-6 -1 -15 0q2 -4 3 -11q-1 -11 -17 -21q-12 -7 -23 -14.5t-21 -34.5l-6 -3q1 -4 0 -9 q-8 -5 -17 -15q-2 -4 2 -11q2 -8 -2 -17q-3 -12 -3 -13zM354 760q1 -9 8 -7v6q4 2 6 6q2 5 -1 5q-2 0 -5 -2v3h-3q-7 -3 -5 -11z" />
<glyph unicode="L" horiz-adv-x="680" d="M16 728q-1 17 12 32t43 17q35 -4 80 -6v6q2 6 17 12q11 3 33 1.5t33 0.5l3 6q5 2 17 3q12 0 35 -12.5t31 -13.5q28 -3 40 0q4 6 12 12q6 1 37.5 -0.5t36.5 -2.5q26 -6 29 -17q-2 -8 -3 -18q3 -1 6 -5h14q0 -2 6 -3v-17q-10 -1 -32 -6q-12 -9 -37 -20q-20 0 -60 -3l-9 -6 q-15 -1 -46 -6v-5q-3 -3 -8 -9q2 -4 3 -17q-3 -2 -6 -9q7 -2 14 -5q-1 -6 0 -15q-10 -5 -28 -20q9 -20 8 -29q-4 -13 -3 -17q1 -1 18 -17q-1 -3 -3 -11l-12 -6q-7 -16 0 -43q6 -5 12 -14q0 -5 -6 -14l-6 -9q1 -7 0 -20q6 0 17 -3q12 -7 32 -46q-8 -5 -26 -15v-8q5 -3 12 -9 q2 -7 5 -57h-5v-6l-18 -14q4 -3 9 -9q-1 -10 3 -31l6 -3q14 -23 11 -46q1 0 3 6q8 -2 23 -3q-1 -5 -3 -20q-25 -4 -25 -10q0 -4 8 -13q4 -1 11 -6q1 -7 6 -17h9q5 -7 14 -15q8 1 20 3l3 6q1 0 6 -3l5 -3q4 0 32 6q17 0 49 6q3 6 15 12q4 0 10 2l9 29q10 1 29 6q1 6 0 17 q-4 3 -9 8v6q1 0 3 9q10 35 9 43q-3 7 -6 15q-4 12 -3 22l3.5 8.5t2.5 14.5q-5 5 -12 11l12 6v6q4 2 8 6q-1 13 0 37q5 3 12 8q16 13 28 13q16 0 35 -27q8 -12 8 -16q-3 -9 -5 -18q-6 -7 -3 -6q2 0 6 -11q-1 -10 0 -29q0 -1 5 -10t3 -16q-5 -4 -11 -11q-1 -5 2 -11t3 -7 q1 -2 -2 -34q1 -2 2 -9l-5 -2q-5 -8 -3 -26q4 -10 8 -23q-1 -4 -2 -15q4 -8 8 -20v-17q-7 -3 -14 -8q1 -11 -3 -29l-60 -35q-11 -2 -28 2q-22 4 -24 4q-19 1 -46 -3l-11 -5q-17 -3 -50 -1q-35 3 -51 1q-12 -5 -31 -9q-3 0 -12 3t-11 3q-42 -3 -126 -3q-7 0 -33.5 3t-35.5 3 q-8 0 -26 -5.5t-28 -5.5q-6 0 -12 2l-6 6q-3 -1 -8 0q-2 1 -9 20q-9 24 3 49h6q2 4 5 8q6 -2 18 -3q2 4 5 9q8 5 35 3q29 -2 23 -3q5 1 26 8l2 6l33 10q20 7 22 19q1 4 -3.5 12.5t-5 11t-3.5 16.5q4 2 6 23q-1 0 -5.5 24t-2.5 30q4 5 8 12q2 8 -1 23l-5 20q-1 14 3 33 q6 26 6 27q1 12 -1 31q-3 13 -5 27q2 17 0 51q-2 3 -5 9q3 12 5 28l-5 9q-1 9 2 22.5t3 14.5q5 46 -5 81q-4 4 -9 11q-3 12 -9 34q-4 1 -14 3q-3 4 -9 9q-9 3 -19 3q-8 0 -30 -5t-37 -4q-9 1 -37 12l-3 5q-7 2 -17 9q1 4 0 9q0 -2 -1.5 1t-1.5 4z" />
<glyph unicode="M" horiz-adv-x="765" d="M18 738v15q4 2 9 6q11 -2 33 0q5 8 17 17q9 2 18 -4.5t12 -7.5l21 9q0 4 3 9h26q3 -5 3 -6h27q2 6 3 6l3 -9h30v-3q16 4 50 3q3 -5 9 -12q5 1 15 -2q6 -5 7 -18q1 -20 1.5 -22.5t6.5 -12t5 -16.5q-6 -7 -14 -20q-2 -15 -3 -33q8 -8 23 -21q-9 -50 -3 -68q5 -2 9 -6v-6 q8 0 21 -3v-9q-7 0 -18 -3q0 -4 -6 -11q7 -9 21 -24q1 1 3 -9q-20 -11 -18 -24q7 -5 15 -14q1 -8 -3 -12q7 -9 15 -18q-2 -7 -18 -24q0 -5 3 -15q7 -3 18 -11q9 -12 15 -51q6 0 18 -3q4 3 7 8t3 9q0 6 -4.5 16.5t-4.5 17.5q0 4 1 8q6 3 12 9q3 6 1 13q-2 8 -1 11q8 9 18 27 q-1 4 0 12q6 3 12 11q1 5 -2.5 10l-3.5 5q-5 25 0 48q7 7 15 17q1 7 -3.5 17t-2.5 19q7 7 15 21q1 5 1 10q0 8 -4.5 24t-2.5 25h3q1 4 3 9q10 8 10 9l-1 6q0 4 3 12q4 2 8 5q1 8 -5.5 18t-5.5 18l6 6q-1 6 3 18q5 2 14 9q1 2 3 8q6 9 27 23.5t33 15.5q8 1 22 -2.5t16 -3.5 q22 5 65 6q8 -4 21 -9l12 6q5 1 24 -12q4 -1 11 -6l3 -6q1 -12 3 -41q-10 -3 -29 -12v-6q-8 -4 -8.5 -9t-3.5 -9q-7 -9 -24 -17l-6 -3q1 -10 0 -27l-9 -9q-1 -5 -3.5 -28.5t-2.5 -24.5l18 -18q-1 -2 -9 -9q5 -17 -3 -56q5 -3 12 -9l-12 -24q2 -8 3 -18q4 -1 3.5 -4.5 t2.5 -4.5q-1 -2 -6 -8q-2 -8 1 -18.5t2 -17.5l-9 -9q-1 -5 2.5 -12.5t3.5 -8.5q-3 -7 -3 -23q4 -3 9 -6q9 -16 6 -18q-3 -8 -12 -21l3 -15q2 0 6 -3q-13 -50 -13 -76q0 -6 2.5 -8t7.5 -4q6 -33 6 -39q0 -5 -5 -13t-4 -17q2 -9 19 -18q13 -6 26 -11q28 -14 34 -21 q10 -11 13 -38l-6 -3q3 0 2 -4q0 -4 -2 -5l-15 -3q0 -4 -2.5 -7.5t-29.5 -10.5q2 0 -33 3q-17 -3 -53 -3l-15 6q-1 0 -9 -3t-9 -3q-16 1 -44 0l-6 -6q-13 -3 -33 3q-11 4 -19.5 17l-15.5 24q-5 -2 -5.5 1t-0.5 5q3 0 12 3q3 11 0 12q-11 -9 -12 -9t-15 3q0 -7 -6 -20 q-7 -3 -15 -9q0 -2 3 -21q-2 -1 -6 -6q-16 -2 -59 3q-5 43 -33 62q9 19 9 21v3q-5 2 -4.5 21.5t-1.5 22.5q-5 5 -11 12q-2 4 -2 8q0 5 5.5 13.5t4.5 17.5q-6 13 -14 35q1 8 0 24q-4 8 -12 27l-6 3q-2 9 1 24t2 23l-15 47l-6 6q0 14 -3 42q-2 10 -21 59q0 5 -6 12q-2 1 3 9 q1 0 6 3q-1 13 -6 47q-6 15 -17 45l-6 3v20l-6 3q-5 14 3 45q-7 5 -30 15q-1 -2 -9 -9q4 -15 9 -54h15q-5 -2 -15 -3q1 -3 -3 -9q3 -5 6 -11q-3 -2 -2 -14q0 -10 3.5 -13l10.5 -9q-7 -10 -15 -24q0 -8 -3 -23l-6 -6q3 -23 -3 -65l-15 -9q-2 -5 -2 -8q0 -2 11 -16t21 -21 q-4 -15 -6 -32q1 -3 21 -15q-4 -6 -9 -15q-1 -7 3 -20t4 -19q0 -4 -1 -8h-6q0 -4 -3 -12l6 -3q0 -4 3 -21q-1 -1 -3 -4q-2 -4 0 -5q-9 -10 -6 -12q2 -1 6 -12q3 -25 -11 -33q-19 -12 -22 -17q-2 -4 0 -15q1 -2 -3 -6v-3l45 -12q30 -9 38 -17q2 -2 0 -3l-4 -2q0 -1 1 -1 q8 -5 9 -13v-17q19 -3 42 -9q2 -1 12 -32l-12 -3q-2 -4 -6 -9h-30q-23 -1 -68 -6l-15 -6l-9 6q-12 -1 -35 0l-9 6q-23 -2 -68 0q-9 3 -24 9q0 1 -6 15q21 16 51 23q0 3 -3 9q7 13 20 33q4 5 45 29v6q-16 12 -33 30q-1 6 5.5 16.5t6.5 13.5q-4 15 -6 50l6 12q-1 8 0 23 q4 5 9 12q2 12 -4 24q-8 17 -8 18q-4 22 3 32l6 3q5 22 0 48l-9 9v3q0 -3 3 1q2 5 0 5v5q0 12 -3 36q-3 3 -6 15q2 9 6 32q-1 43 -6 101q-4 6 -9 15q2 19 -6 56q-13 22 -53 30q-4 -1 -12 0q-2 3 -9 9zM448 157l15 -15v-9l-9 -3l-3 -17l18 -12q9 -9 10.5 -18t2.5 -9q3 0 19 9 q-9 5 -9 8q0 2 7 5t8 5v6q8 -5 6 -6q21 -1 39 9q-4 16 -3 17q1 5 12.5 12.5t13.5 14.5q3 11 -2 34t-10 22l3 6q12 20 12 33q1 18 -6 35l-6 3q-2 10 9 30h6q2 6 -2 26t-7.5 23.5t-8.5 6.5q-1 9 7 16.5t8 10.5q-3 12 -6 12l9 21q-15 18 -15 26t15 30l-12 9v3q-7 2 -15 -3 t-14 -3q-2 4 -6 15q10 2 6 3q1 0 3 6l6 -3q7 -9 14 -3q1 1 0 8q2 4 3 9q-2 18 6 48q0 3 -9 6q-2 0 -24 -6.5t-23 -8.5q0 -8 -3 -24l-6 -3v-9h-6q-1 -6 5.5 -14t6.5 -9q-5 -11 -6 -30q11 -5 24 -12q2 -6 6 -15q-6 -3 -12 -9q1 -8 -3 -23q-7 -2 -15 -6q-3 -6 -3 -10 q0 -6 4.5 -11.5l4.5 -5.5q-1 -14 -3 -9q-1 -4 -3 -3q-6 -5 -21 -15q11 -18 11 -23q0 -3 -7 -6t-10 -12q2 -7 3 -21q0 -1 -4.5 -11t-3.5 -12q2 -4 5 -12q-1 -4 -5 -9h-9q-1 -2 -4 -6t-2 -9q0 -1 3.5 -9.5t2.5 -14.5l-12 -15h-6v-20l6 -3q-5 -5 -6 -21zM469 71q3 -1 8 -3 q-5 3 -8 3zM531 596l18 -3q6 21 8 50q-6 0 -20 3q-8 -28 -6 -50z" />
<glyph unicode="N" horiz-adv-x="664" d="M17 738q1 6 3 12h17q7 22 9 35q27 0 41 3q11 6 33 12q11 0 18 -11q8 -14 11 -15h18l6 -6l50 -8t35 -19q0 -10 6 -23l23 -6q4 -4 12 -9q-4 -7 -9 -15q7 -9 15 -29q-1 -9 0 -27l6 -6q-2 -13 0 -38q2 -5 14.5 -11.5t14.5 -11.5v-24q9 -2 27 -9q-5 -34 -3 -41l6 -6 q-3 -8 -3 -26q0 -3 20 -21q-6 -28 -3 -35q8 -4 21 -12q1 -4 6 -15q6 -2 14 -8v-9l6 -3q2 -6 0 -35q12 -3 36 -12q2 -5 0 -15l-12 -3q-1 -18 1 -22t17 -10q-1 3 0 9q3 1 8 6q0 4 3 14h12q1 5 0 15q-4 2 -9 6q1 5 0 15l-6 5v6q3 1 6.5 19.5t2.5 24.5l-12 24q-1 10 3.5 21 t2.5 20l-9 6q4 26 3 29l-5 12q3 11 2 35l-17 15q16 33 12 59q-1 2 -6 13t-3 19l9 3v24l-6 9q1 8 0 23q-4 2 -9 6q-14 14 -30 14q-5 0 -16.5 -2t-19.5 -2t-16 2l-6 6q-11 4 -21 8.5t-10 16.5q0 4 1 10l6 6q4 11 6 15q4 8 12 11q3 2 27.5 8.5t25.5 6.5q28 -24 35 -23 q14 9 38 20q18 2 30 -18q10 1 29 0q14 -5 35 -11q7 3 21 6q5 -4 13.5 -8.5t17.5 -8.5t16 -13q0 -5 -3 -12q-4 1 -12 0q-9 -10 -26 -23q-17 0 -44 -9l-3 -6q-4 -7 -1 -16q2 -6 4 -13q-3 -10 -6 -27l9 -14q-1 -8 0 -24l6 -3q1 -4 0 -20q-1 -1 -4 -7t-2 -8l6 -6q4 -18 -9 -29 q2 -5 6 -9l3 -15q-11 -9 -12 -21q-1 -6 6 -26h-3q-9 -34 -3 -38l-6 -3q-7 -18 -3 -33q0 -1 5.5 -4t6.5 -16q0 -10 -7 -33t-5 -35h3l6 -9q-2 -6 -3 -11v-6l9 -9l-6 -18q-2 -11 14 -35q-10 -20 -2 -41v-6q-2 -6 -3 -15q1 -4 9 -7.5t14 -7.5q-4 -5 -9 -14q-5 -20 9 -77 q-21 -16 -62 -26q-24 -6 -26 -6q-5 1 -23 11.5t-20 15t-4 11.5q-10 11 -24 41q1 10 -3 33q-6 6 -14 17v18l-12 21q-9 5 -21 17q-4 9 -3.5 28.5t-2.5 27.5q-8 11 -17 27q-1 9 -6 29q-6 7 -15 21q-1 16 -9 44q-10 7 -26 23q-6 9 -7.5 26.5t-4.5 23.5q-12 13 -26 33q0 7 -3 20 q-9 7 -18 15q-1 11 -6 32q-6 5 -15 15q1 4 0 9q-6 -1 -17 0q-4 -47 -3 -50q0 -2 23 -24q-5 -3 -11 -9q-11 -19 -11 -49q0 -8 6 -8t8 -1q-2 -7 0 -15q-4 -3 -9 -9l-3 -23l-6 -6q2 -7 3 -24l-6 -9q-5 -22 -24 -38v-15q5 -2 8 -5t5 -20q2 -12 8 -13q-1 -2 -6 -9q-13 -19 -9 -38 q8 -7 18 -21q-1 -5 3 -17l15 -9q-11 -20 -6 -29l12 -6q4 -8 17 -21q5 1 15 0q5 -4 15 -9l46 -12q25 -10 27 -29q0 -2 -3 -20q-15 -7 -44 -15q-16 -3 -49 -2t-51 -1l-9 -6q2 0 -35.5 2t-75.5 3q-41 3 -53 24q-9 15 0 30q3 7 10 8q13 3 15 4.5t4 4.5q6 1 21 6q8 4 23 19t18 23 q-1 4 0 14q4 5 9 12q6 26 0 74q-5 9 -9 20q-3 19 0 46l6 39q0 7 -4.5 19.5t-5 17.5t-0.5 39q1 39 4 48l6 6q0 9 -4 22q-2 10 -5 19q-1 2 0 12q2 -2 3 9q0 5 1.5 14t1.5 15q0 4 -3.5 20t-2.5 24q0 2 6 15t6 20q-6 10 -12 27q1 18 0 44q-4 12 -20.5 14l-32.5 4l-27 11 q-18 9 -14 9z" />
<glyph unicode="O" horiz-adv-x="620" d="M15 356q-1 5 3.5 12.5t4.5 9.5q1 9 -3.5 25t-4.5 21q-2 24 3 41l5 5v55q1 16 15 33q19 25 20 27q1 7 6 20q4 3 8 9q1 6 -2.5 14.5t-3.5 10.5q1 10 13.5 19t12.5 10q4 5 4 15.5t2 16.5q1 3 13 16.5t16 14.5q3 -1 8 0q3 6 9 17q5 3 11 9v6q5 1 12 3v2q6 3 16 1q11 -2 15 -1 q6 2 11.5 11.5t8.5 11.5q10 7 38 9q7 1 91 -6q11 1 32 0q7 -4 17 -8h12q5 -3 10.5 -14.5t10 -13t16.5 -4.5q20 -6 29 -17q4 -14 17 -37q9 -4 23 -15q2 -5 1 -11q-2 -6 -1 -9l5 -3q0 -5 3 -17q8 -6 20 -20q4 -16 15 -43q0 -1 20 -14q-5 -32 6 -81l5 -8q-1 -7 0 -20l17 -15 q0 -4 -2 -14q-6 -5 -12 -14q-2 -10 0 -29q3 -25 3 -31q-2 -1 -11 -3q0 -2 5 -6q-3 -9 -7 -18q-5 -15 -5 -25q0 -5 1 -9.5t17 -19.5q-2 -7 -9 -23q-9 -8 -20 -25q1 7 3 -21q-6 -1 -20 -5q0 -11 -3 -35q-1 -2 -3 -8h-5q1 -6 2 -15q-4 -3 -8 -8q1 -3 0 -9q-3 0 -9 -3q1 -3 0 -8 q-3 -3 -8 -9h-3q-2 -8 0 -22q2 -11 -2 -17t-17 -10t-16 -8q1 -6 0 -15q0 -1 -6 -8.5t-8 -8.5q-14 1 -40 0q-6 -3 -17 -8v-9q-3 -2 -23 0q-27 -1 -83 0l-23 6q-9 -3 -29 -3q-6 4 -14 8q-12 0 -35 6q-4 6 -14 15q-6 0 -14 2q-6 13 -18 32q-11 13 -17 14h-8v3q-2 1 -21 21.5 t-20 21.5q2 7 3 20q-1 7 -13.5 19.5t-14.5 18.5q-1 10 -6 31q-8 24 -14 34l-6 3q1 11 0 32q-4 11 -9 29q1 9 -3 31q-4 5 -8 12zM104 510q2 -14 11 -40q1 -1 5 -3.5t4 -7.5v-6q-13 -32 -12 -43q0 -1 9 -11v-13q1 -9 3 -8v-8q-1 -1 -7.5 -12t-4.5 -20q2 -6 29 -25q1 -6 0 -15 l-3 -3.5t-3 -7.5l15 -29q0 -9 5 -26q7 -3 15 -11v-6h5q12 -15 15 -26q-1 -6 0 -17h3q1 -4 5 -11q13 -7 35 -23q2 -9 11 -20q14 -7 43 -6q7 0 27 7q17 7 25 4l3 -8q6 -5 21 -8q18 -2 27 2v6q7 4 12 14.5t8 13.5q8 4 26 12q0 2 3 6q-8 35 0 43q8 0 20 5q2 10 9 26q5 3 14 9 q-6 15 -8 18.5t-12 9.5q12 -1 32 3q-10 35 -6 43q3 2 8 6q8 9 9 29q-3 12 -3 37q6 5 12 14q0 4 -2 12t-4 8q3 8 6 20q-7 7 -15 21q0 4 3 10.5l3 6.5q0 5 -9 20q3 8 3 28q-5 6 -11 15q0 5 -3 17q-1 2 -11 15q-5 6 -3 25q-30 8 -35 26q3 6 0 23q-4 2 -8 6v5q-5 4 -19 5t-19 4 q-2 8 -5 17q-6 3 -15 9l-3 3q-1 6 -2 14q-1 0 -3 -11q-26 -4 -29 -3q-1 0 -8.5 4.5t-17.5 3.5q-11 0 -31 -8t-26 -15q-4 -10 -12 -23h-5q-18 -1 -23 0h-6q-2 -6 -9 -17q-5 -1 -14 -6q0 -3 -3 -8q-4 0 -11 -3q-1 -5 -6 -14q-3 -3 -22 -9q-12 -4 -15 -14v-26l-12 -6 q-1 -4 3 -15t4 -16q0 -7 -4.5 -10.5t-10.5 -7.5z" />
<glyph unicode="P" horiz-adv-x="693" d="M16 722l9 27l6 3q1 1 -3 15q11 5 30 9q8 0 27 -6q15 27 33 30q34 5 51 -3q2 -4 6 -9q5 1 15 0q-2 0 1 1.5t5 1.5q6 1 21.5 -1t22.5 -2q12 3 15 3q32 -3 173 -3q-4 0 6 3q40 4 63 -3q3 -5 9.5 -10.5t25 -7.5t25.5 -6q8 -11 24 -24q6 -2 14 2t10 4l32 -33v-6q5 1 12 0l3 -3 v-14q2 -9 24 -24q-1 -5 -6 -12q-8 -4 -27 -12v-15q1 -1 21 -15q-10 -12 -10 -18q0 -4 4 -6q-15 -10 -16 -12q-2 -12 -5 -24l-6 -6q-3 -17 0 -47l-20 -9q-9 -8 -9 -39v-21l-6 -3q-1 -7 -1 -14.5t-5.5 -7.5t-14.5 -2q-4 -2 -8.5 -13t-10.5 -11.5t-17 -2.5l-15 -18 q-8 -2 -27 -9q-8 3 -30 0q-3 -5 -9 -12q-6 -1 -13 2.5t-11 3.5q-8 -5 -21 -12q-9 -2 -27 1q-23 2 -29 2q-11 0 -18 -3q-3 -5 -9 -12q13 -26 3 -41q-4 -2 -9 -6q1 -4 0 -9q-6 -3 -12 -9q0 -1 3 -3q-7 -32 -6 -36q4 -1 9 -3q2 -2 2 -6t1 -6q-5 -7 -15 -15q-5 1 -15 0 q0 1 -3 -12q1 0 3 -6q8 1 27 3q7 -12 15 -36q-3 -5 -3 -21q4 -2 9 -6v-6q10 -5 30 -11h21l6 -6h6v6l12 6q5 2 17 -3q2 -5 14 -11q5 1 13 -1v-6q8 -23 0 -36q-4 -2 -9 -6q0 -4 -2.5 -7.5t-6 -3.5t-6.5 -1q-3 -5 -12 -12q-12 1 -35 0l-6 -6q-30 -8 -57 -3q-6 4 -15 9 q-23 5 -36 6q-7 0 -17 -4.5t-13 -4.5q-13 2 -38 3l-3 -6q-20 2 -64.5 0.5t-67.5 2.5l-12 6q-11 -1 -30 6l-3 12q-3 13 -3 18q2 9 12.5 14l20.5 10q3 5 15 12q15 -1 45 3q13 8 33 17h39l12 30v24l-6 3q-1 5 2 12t4 9q-2 15 -3 42q0 1 1.5 4.5t1.5 7.5l-6 9q-4 30 0 48l6 8 q-3 7 -3 24q4 5 9 21q0 5 -3 23.5t-3 21.5q3 15 3 48q-5 6 -9 15q-5 17 -3 36l6 14q-3 17 -3 51q3 15 3 18q-6 5 -12 12q-1 6 3.5 11t5.5 7q0 6 -4.5 22.5t-4.5 19.5q-1 14 3 24l6 3q0 3 -6 24q-5 -3 -15 -3q-3 5 -9 11q-11 0 -33 3l-3 6l-24 9v3q-6 2 -15 2q-22 0 -57 -11z M315 645q17 -2 45 -12q0 -5 3 -12l-3 -9q-7 -2 -15 -9q1 -9 0 -27l-6 -6q2 -3 -3 -6q11 -9 11 -14q0 -2 -2 -4q-6 -12 -18 -30q-1 0 3 -12q1 1 3 -5v-9q0 -1 -15 -12q11 -5 27 -18q-1 -5 0 -12q3 -11 15 -18q7 -4 16 -4q10 0 27 6.5t22 6.5q1 0 15 -6q7 -1 16.5 3.5 t13.5 5.5q12 -3 33 0v6l30 39q11 -1 33 3q7 3 7 18.5t2 19.5q7 2 18 9l-3 12q2 0 3 2t3 4l-3 12l-18 15l-3 3q0 9 -3 27q-7 6 -18 18q-1 7 -6 18q-8 2 -21 9q-1 4 -3 9q-7 1 -21 6q-6 8 -21 21q-5 -1 -15 0l-3 6q-6 -1 -18 0l-6 5h-15q-1 1 -9 15q-7 1 -23 3l-21 -29 q-3 -1 -9 0q-3 3 -6 9h-15v-6q-5 -2 -12 -6q6 -10 12 -30q3 0 9 -3h-9q-2 -4 -6 -9q-1 -1 -18 -3z" />
<glyph unicode="Q" horiz-adv-x="581" d="M14 432q1 -10 5 40q-1 10 0 29l10 18q-1 -5 -3 19q0 4 2.5 13t2.5 12q-2 5 -2 17l5 5q-1 9 2 25q4 2 10 7q0 5 2 15q6 8 15 22q2 11 10 32q4 3 10 8q3 7 12 22q3 1 8 5q-1 3 0 7q2 12 15 20q4 0 12 3q7 7 22 17q8 1 25 5q23 9 32 15q2 4 7 10q17 5 35 2q8 -6 25 -12 q12 1 37 0q5 -6 14 -13q5 1 13 0q8 -5 22 -15q10 -2 30 -12q4 -8 14 -22q9 -2 23 -10q2 -7 7 -20q11 -5 26 -23q-1 -10 1 -31q6 -6 13 -17q-1 -4 0 -10l4 -3q1 -9 5 -29q5 -5 10 -13q3 -11 2 -32t1 -32l7 -12q1 -4 -2 -15q-1 -5 2 -12.5l3 -7.5q-2 -8 -3 -22l3 -3.5t2 -6.5 q-4 -3 -10 -10q-1 -6 8 -42q4 0 12 -2v-8q-6 -4 -15 -12q0 -6 -2 -20q-6 -9 -13 -27q2 -6 3 -22q-3 -7 -8 -17q6 0 15 -3v-5q4 -1 10 -5q1 -5 5 -17l-7 -7h-6.5h-6.5q-7 4 -7 7v3q-17 -3 -15 -3q2 -1 1 -14q-2 -13 -2.5 -14.5t-13.5 -10.5q9 -5 22 -13q1 -5 5 -12 q9 -1 23 -5q1 -4 5 -10q14 -8 32 -25q-1 -3 0 -10q3 -3 7 -9q1 -12 3 -30q6 -8 12 -17q0 -2 -2.5 -3.5l-2.5 -1.5v-15q-2 -11 -10 -13t-17 -4q-2 3 -5 7q-2 1 -5 10v-7q-3 -1 -5.5 -4t-6.5 -9q-9 0 -25 -5q-4 -6 -12 -15q-6 -3 -21.5 -6.5t-40.5 -3.5q-27 1 -37 5 q-9 11 -27 28q-6 1 -15 7q-3 8 -10 20q-5 0 -10.5 5t-5.5 16q-1 16 -1 18q-3 5 -8 15q-10 -1 -34 0q-9 4 -23 8q-8 -1 -24 0l-5 4q-5 -1 -15 -2l-15 10v5q-5 1 -16.5 6t-40.5 41q-5 3 -17 12q-3 6 -7 12h-5v8q-12 17 -15 20q-8 2 -20 12q-1 9 -7 27q-8 4 -16 21q0 7 -1 24 q-8 12 -18 39q3 15 3 49q-5 9 -10 25zM78 452q2 -3 2 -10q5 -3 15 -10q-4 -16 -3 -20q0 -5 11 -14q-4 -6 -8 -15q0 -5 6 -17l4 -10q-3 1 -5 -12q-1 -13 0 -18q8 -5 20 -15q3 -7 7 -15q15 -10 35 0v5q12 14 42 30q6 1 15 -2t10 -3h22q10 -3 25 -7q9 1 24 2q2 0 27 -15 q7 -1 29 0t26 3q8 3 10 39l27 12q-3 19 10 40q-8 13 -8 15q0 3 10 12q0 2 -7 30q6 5 5 15l-4.5 7.5t-3.5 11.5l8 5q-1 4 0 15l5 3q-5 19 -6.5 21t-16.5 13v10q4 2 8 5q8 14 0 32q-6 4 -15 12q-4 11 -15 30q-11 7 -25 20q3 9 -5 27q-13 5 -39 17q-14 13 -37 27q-9 3 -20 0 l-7 -7q-10 1 -27 -2v-5q-7 -5 -15 -10h-20q-11 -2 -30 -18q-5 -4 -9 -9v-8q-11 -8 -25 -25v-12l-5 -2q0 -8 -5 -23q-6 -4 -12 -12q1 -9 0 -25q-8 -7 -18 -19q2 -6 0 -20l-12 -15q-5 -19 2 -37l5 -2q2 -15 0 -20q-2 -2 -7 -5z" />
<glyph unicode="R" horiz-adv-x="758" d="M14 49q10 48 29 55q17 2 47 9q8 9 26 23l43 12v9q-3 2 -8 5v6q4 0 14 3q-3 8 -3 9q5 3 9 7v0q-1 0 -3 -1q-2 6 -3 5q-1 6 0 12h12q1 5 5 11q0 12 -8 25q-4 0 -12 2q0 2 -3 8l-20 15q-1 3 0 8q5 4 12 9q-2 6 0 15q11 6 29 17v17l-3 9h-15l-3 -6q-6 0 -11.5 3l-5.5 3l6 6 q-1 53 -3 61q-6 4 -12 11v6q13 10 32 15v14q-16 7 -17 10q-3 9 -6 19h-3q-3 0 -5.5 4t-3.5 5q6 23 32 67q-9 7 -20 20q-4 8 -6 53q-2 42 0 54q-8 8 -26 17q-12 -1 -35 0q-3 1 -19.5 11t-17.5 13q-1 10 -3 32q5 -1 14 0q4 1 17.5 18t26.5 19q6 1 11 1q10 0 23 -6.5t21 -5.5 q8 4 20 8q9 -2 32 -3l6 6q26 7 81 6q9 -4 26 -9q11 3 38 6q14 0 37 -3l6 -6q15 2 38 3l8 -5q18 1 53 0q7 -2 15 -11q12 -11 14 -13q8 -3 26 -11q2 -5 8 -12q10 0 29 -6q8 -3 28.5 -25t24.5 -30q1 -8 5 -26q7 -8 15 -26q4 -22 0 -43q0 -1 -3.5 -7t-2.5 -11q4 -2 9 -6v-11 q-4 -3 -9 -12v-6q10 0 6 -23q-2 -8 -23 -17q6 -18 5 -20l-5 -3q-2 -6 -9 -15q-12 -3 -26 -14v-12l-6 -3v-6q-10 -1 -26 -5q-5 -9 -15 -21q-6 0 -20 -3v-14q5 -5 12 -15q1 -9 6 -26q12 -8 26 -29q0 -3 -3 -8t-3 -6q-4 -29 3 -47q6 -4 14 -14q-3 -19 3 -55q4 -8 29 -6 q13 -31 26 -35q9 1 26 0l3 -5l18 -6q2 -4 5 -9q4 0 12 -3q10 -6 26 -35q8 -13 8 -23q0 -13 -11 -20q-16 -11 -32 -15q-6 1 -17 0l-9 -11q-15 1 -43 0q-7 -2 -13 -4q-11 -4 -19 -2q-12 8 -41 17q-5 -2 -17 -3q-7 5 -23 9q-8 -2 -24 -3q-14 9 -40 23v6q-4 2 -9 6q1 7 0 20 q-5 7 -14 18q17 -1 34 8q1 8 0 21q-9 8 -20 26q0 5 4.5 11.5t4.5 8.5q1 7 -4 15t-5 11q5 19 6 18q-4 8 -9 20q2 9 3 29q-5 9 -11 23q2 15 -3 44h-3q-2 3 -6 8q-9 3 -23 12q0 4 -3 9q-5 -1 -12 0q1 3 0 8h-3q-3 0 -5 4t-3 5q-4 2 -36.5 4.5t-36.5 1.5q-1 -1 -6 -15 q-27 0 -40 -11q3 -10 17 -29l9 -6q-1 -10 -3 -32q-11 -2 -35 -9q0 -41 -3 -49l-5 -3q-1 -5 0 -9q5 -5 8 -31q-1 -7 0 -18l9 -11l6 -9q7 0 20 -3q2 -6 9 -15q9 0 26 -2q7 -6 20 -12q5 4 20 6l9 -9q3 1 9 0q5 -2 13 -16t11.5 -15.5t10.5 -6.5q3 -7 0 -23v-11l-6 -3 q-4 -7 -8 -12.5t-15 -8.5q-12 1 -35 0q-11 -4 -29 -8q-7 -1 -23 1t-18 2q-9 -2 -29 -3q-2 0 -15.5 3t-18.5 2q-1 0 -21 -4q-15 -3 -26 -1q-6 4 -14 8q-17 0 -50 3q-5 5 -11 9q-6 1 -15.5 -4t-13.5 -5q-18 13 -44 29zM249 557q4 -7 9 -15h6q-1 -4 0 -12l-9 -2q1 -4 0 -9 q5 -3 32 -23q6 1 17 0q1 -6 6 -18q14 0 34 -4t30 -4t20 2q4 5 9 9h20q7 5 15 9q8 -3 28 -3l3 6q14 3 38 14q5 4 7 14.5t5 14.5q9 4 20 15q5 14 3 29q-7 7 -18 23q1 9 -8 29l-29 17q4 4 3 9q-1 7 0 9q-6 0 -18 3v5q-9 7 -23 15q-9 2 -35 -4.5t-40 -4.5l-16.5 5.5t-21.5 3.5 l-9 -9q-17 0 -49 -3q1 -21 -17 -35q2 -1 -3 -14h3q1 -6 5 -23l6 3v11h6h9q16 -2 3 -3q-4 -3 -9 -8v-9q-6 -1 -15 -3q1 0 0 -9q5 0 15 -2q-1 -5 -3 -9q-5 0 -14 -3q-2 -1 -15 -17zM281 551q4 2 12 8q17 -13 20 -20q-1 -3 0 -9q-5 -3 -12 -11h-8q-4 3 -9 9q-1 7 -3 23z" />
<glyph unicode="S" horiz-adv-x="628" d="M15 124q1 1 3 2q3 9 11 20q-3 8 -6 17q5 0 6 8q1 6 0 14l-6 14q1 -1 3 34q-2 1 -5 3q1 5 2 17l-5 5q-7 25 -3 45q1 8 14 17q9 3 31 11q3 4 8 9q21 5 65 -23l3 -5q9 -2 25 -6v-14l-6 -3q-1 -8 -3 -20q19 -8 23 -8q8 4 11 3q0 -3 6 -6q3 -7 5 -14q-2 0 -5 -14q8 -9 17 -22 q-1 -5 0 -12q4 -6 23 -9.5t24 -6.5q6 -12 14 -26q27 3 26 3q3 -6 11 -14q14 -7 31 -3l5 6h6l-3 8q4 4 11 12q27 -9 33 -9q7 0 12 3l9 8q-3 14 -3 37q2 0 6 6q4 0 16 2q0 10 3 31q3 1 6 6v8h-3q0 15 -6 42l-5 3q2 7 3 3v6q-5 0 -3 3q1 4 3 2q-2 6 -3 6v8q-27 13 -34 23 q-1 6 -6 14q-6 -1 -16 0q-1 0 -6 11h-14q-3 5 -8 11h-26l-8 6q-9 -1 -25 0l-6 5h-22q-11 4 -29 9q-8 -1 -22 0l-8 11q-10 0 -28 3q-12 13 -31 31q-5 0 -14 3q-3 6 -12 14q-3 -1 -8 0q-7 10 -22 28q-4 -1 -9 0q-5 2 -11 14q-1 7 -6 22q-6 5 -14 14q0 1 9 28v23q-4 -1 -14 -6 v9q4 2 8 5q-1 5 0 14q4 2 8 6v14q5 3 12 8q0 6 5 14q2 1 2 3q0 3 -7 8q-7 10 -7 14q2 7 4 15h14q14 7 16 20q2 19 6 24l26 15q4 -1 11 0q2 3 5 8q6 0 17 3l14 14q19 9 51 11q43 3 64 -3q1 0 12 -8q17 -5 42 -6q8 2 25 3q7 -4 17 -8q15 -3 25 0l6 5q19 3 63.5 -1t54.5 -10 q4 -3 11 -19.5t14 -19.5h3l3 -6q0 -6 -3.5 -11t-2.5 -11q6 -6 14 -17q1 -5 -6 -17q0 -8 5.5 -15t6.5 -8q-1 -4 0 -11q-12 -4 -31 -11q0 -9 0 -8q3 -6 5 -6q-1 -8 -3 -17q3 -9 9.5 -10.5t13.5 -3.5q-1 -2 3 -6q0 -4 -3 -14q-4 -1 -11 -5q-2 -8 -9 -23q-7 -8 -25 -31 q-3 -1 -7 -1q-29 0 -49 15q-1 4 -3 9q-4 0 -11 3v8h-6q-2 5 -5 11q-5 1 -14 3q-1 4 -3 9q-4 0 -11 5q-3 7 -12 20q-4 1 -7 3.5t-12 24.5q1 5 0 14l-20 14q-1 7 -6 20q-3 4 -18 7t-18 7v11q-2 9 -10.5 11.5t-17.5 5.5q-1 -1 -3 -6q-18 -1 -48 -3q-1 -4 -5 -11l3 -8 q-5 -1 -12 0l-14 14q-1 -4 -3 -9q-5 -5 -30 -8q1 -2 2 -9l-5 -2l-9 -23h-11v-31l-8 -2q-3 -8 -2 -26t4.5 -22.5t26.5 -12t27 -10.5q0 -3 3 -8q21 -16 39 -20q26 -5 48 -3q1 1 10 5t12 4q11 -6 28 -14q9 -1 25 -6q4 -5 12 -11q7 1 19 0q5 -4 12 -8q6 0 19 -3q2 -4 6 -9 q7 0 19 -2q8 -8 23 -20q4 0 14 -3l3 -6q5 -1 17 -5q2 -4 5 -9q8 -3 20 -8v-31q13 -5 36 -11v-9q-4 -7 -8 -16q-1 -7 3.5 -14t4.5 -9q-2 -9 3 -25q1 0 34 -14v-11q-10 -4 -27 -13q-3 -3 -2 -8q2 -7 1 -13l-14 -20q0 -3 3 -8q7 -3 16 -11v-12q-6 0 -16 -2q2 -15 3 -16 q11 0 22 -1q0 -7 -3 -20h-6v-5q-5 -2 -16 -6q0 -9 0 -8q-7 -2 -17 -9q-3 -3 -11 -20q-5 -12 -15 -16h-14q-5 -5 -14 -12q-3 1 -8 0v-8q-4 -16 -17 -23q-18 -3 -50 -16q-1 -5 -6 -12q-4 1 -11 0q-5 -3 -11 -8q2 1 -29 3q-19 -2 -61 -3q-15 4 -37 8h-17q-2 4 -5 9q-8 0 -23 3 q-4 6 -17 14q-18 0 -53 5l-3 9q-6 0 -19 3q-7 -13 -26 -29q-4 1 -11 0q-16 -4 -22 -2q-4 3 -9 8h-8q-1 4 -6 14q-4 6 -31 17q5 34 -5 59z" />
<glyph unicode="T" horiz-adv-x="623" d="M15 457q0 -3 2.5 32.5t8.5 112.5q6 54 6 50l-4 33q-3 24 1 39q1 2 16 17t16 15h6q1 5 6 18q3 2 9 9q14 -4 14 -3q4 4 8 9q8 8 16 8l17 -12q7 2 17 3q5 0 15.5 -11t19.5 -9q1 4 3 9q6 4 21 8q8 3 37 4q27 1 32 -1q1 0 6 -3t9 -2q16 8 44 17q10 1 25.5 -2.5t23.5 -3.5l15 6 q-4 -1 23 -3q27 3 78 -3q29 -10 67 -64q4 -2 12 -3q3 3 12 6q-1 -3 0 -12q-12 2 -9 3h-18v-32h6l-3 -5q4 -3 2 -10q-2 -5 -5 -11q-2 -14 1 -17q7 -5 14 -9v-9q-4 0 -9 -3q-1 -4 1 -14l2 -12q-4 -25 0 -75l9 -9q2 -8 2 -16q0 -15 -7 -33l-10 -27q-1 -13 -8 -29q-14 -8 -32 -3 q-11 3 -16.5 17l-10.5 27q-6 7 -14 20q1 9 -3 26q-8 5 -17 12q-3 6 -3 12q0 12 23 26v9l-12 5q3 17 3 18l-17 14q3 10 3 32l-18 15v12h9v5q-6 7 -15 15q-27 9 -64 3q-17 -3 -16 -8q1 -12 -1 -15q-5 -1 -12 -3q0 -3 -3 -9q-6 -5 -20 -15q-1 -6 0 -17l6 -3q12 -31 11 -35 q0 -3 -8 -12t-6 -20q0 -1 7.5 -9.5t6.5 -16.5l-8 -6v-20q-1 -2 -6 -15q-4 -9 -3 -17q8 -9 17 -26q1 -4 -5 -27q5 -2 6 -17q2 -15 -1 -26q-4 -4 -8 -9q-9 -20 -3 -47q0 -2 6 -11.5t5 -20.5h-2v-14l-6 -3q-2 -11 3 -19q3 -3 5 -7q1 -4 -2 -12q4 -2 2 -35q-3 -39 -2 -43 q1 -7 2 -15l6 -3q-2 -3 -3 -9q5 -7 15 -8q21 1 26 3q2 2 6 8q7 2 68 -13t66 -19t11 -21q8 -20 9 -22l-12 -3q-2 -5 -5 -15q-9 1 -9 0q0 -2 3 -8q-2 -1 -6 -6q-67 -10 -79 -9q-16 5 -49 12q-70 5 -93 0q-3 -3 -12 -6q-28 -2 -43 0q-8 5 -21 11q-3 1 -20 -2q-5 -1 -14.5 2 t-11.5 3q-3 0 -10 -2.5t-8 -2.5h-26l-14 -6q-6 -1 -14 2l-24 9q-2 6 -3 15q0 2 11 26q5 0 3 2q-1 1 -4 2.5t-7 7.5v8q7 6 17 12q4 1 58 -3q19 -3 21 -3q10 8 29 18q14 -1 43 3v5q4 2 9 6q2 5 2 13q0 6 -2 20.5t-2 21.5q0 8 3.5 14t10.5 21q3 3 3 6l-12 15q-2 6 -5 25.5 t-1 23.5q10 4 21 21q-2 4 -3 11q-10 22 -21 61q0 5 3 10q2 2 3 5l-3 38h3q0 2 -3 11q5 3 3 6l-17 15q4 11 17 29l-9 11q1 10 0 30q0 2 -6.5 13t-4.5 19q5 4 11 11q6 15 3 29v6l-5 6q-2 10 2 19.5t4 10.5q0 5 -6 11q-1 1 -3 5q-2 0 -3 6q1 -1 6 3q-11 10 -12 12v9q-4 1 -11 1 q-13 0 -29.5 -4.5t-17.5 -8.5v-12q-6 -3 -12 -3q-3 0 -15 3q-10 2 -17 0l-17 -17l-12 -6q-4 -9 -2 -28q3 -22 2 -30q-6 -43 -6 -44l-6 -3l6 -14t3 -15q0 -10 -8 -26t-9 -20q1 -9 0 -27l-6 -2q-14 -21 -32 -18q-17 3 -21 18q1 4 0 11q-5 5 -11 15zM349 79q1 4 3 8q2 9 2 13 q0 7 -5 5q-3 -2 0 -26zM349 672h6q-1 1 1 7q1 5 -7 5q-3 -10 0 -12zM358 239l29 14q1 -5 6 -14q-13 -12 -13 -19q0 -5 4 -8h-14v9q-4 2 -9 6q0 -1 -3 12zM370 537q-2 4 3 4t6 -4t-3 -5q-5 0 -6 5zM370 605v15l6 3q5 -4 17 -12q-10 -7 -6 -9q-2 1 -17 3zM382 497q0 3 5 3 q11 1 11 -6q0 -5 -8 -5q3 -3 -1 -3h-5q2 0 0 4q-2 5 -2 7zM390 195q3 7 3 3q25 -5 25 -10q0 -3 -8 -8t-12 -5q-1 0 -8 20zM427 652q0 3 4 3q3 0 3 -3t-3 -3q-4 0 -4 3zM603 691q-2 1 2 1q4 1 6 -1q2 -1 -3 -2q-3 0 -5 2z" />
<glyph unicode="U" horiz-adv-x="726" d="M12 731q2 13 8 18q4 0 12 3q6 8 19 20h12h6q5 0 19 2q-3 3 3 3q2 -5 9 -11q12 -3 43 11q3 4 8 9q7 1 18.5 -4t12.5 -5v6q13 3 15 3q6 -6 20 -12q6 1 14 3q2 4 6 9q9 -1 28 0q1 0 12 3q8 3 14 2q2 0 16.5 -3t22.5 -2q39 2 37 3q8 -3 10.5 -10.5t4.5 -15.5l5 -3q7 9 26 18 q4 0 14 2q8 7 26 14q16 -3 45 -3q2 1 7 5t8 4t10.5 -5.5t9.5 -5.5q4 -1 13 2t12 3q8 0 23.5 -5.5t19.5 -5.5q12 2 40 3l10 -4q9 -3 15 -2q9 3 12 3q6 -1 13.5 -8.5t9.5 -8.5h2v-20q3 -6 5.5 -14t0.5 -15h-3q-6 -8 -14 -17q-10 1 -31 -2q-4 -5 -12 -12q-1 0 -25 -11 q-6 1 -15 0q-9 -6 -9 -24q0 -7 5 -9t2 -4l-12 -12l-3 -3q1 3 6 -39q-1 7 -3 -12q2 -15 0 -20q-2 -1 -5 -3q2 -24 11 -65l14 -14q-4 -1 -14 0q-2 -24 -6 -43q-3 -3 -5 -11q5 -6 11 -17q1 -4 -3 -15q2 -11 3 -40q-2 -3 -3 -8q3 -3 6 -9q0 2 1.5 -3.5t1.5 -7.5h-3 q-4 -8 -12 -17h-5q-3 -7 -3 -14q0 -9 6.5 -25.5t4.5 -26.5l-8 -8q-3 -9 -0.5 -21.5t0.5 -18.5q-7 -5 -15 -17q3 -9 6 -23q-2 -5 -6 -17h-5q-1 -4 5 -26l-17 -8l-8 -37q-9 1 -26 0q-9 -11 -25 -26q-6 0 -20 -5q-2 -4 -6 -9q-14 -1 -43 -6q-7 -5 -20 -11q-7 -1 -23 2 q-20 4 -22 4q-18 -2 -51 0q-14 6 -37 17q-9 1 -26 5q-5 6 -14 15q-19 15 -46 20q-2 9 -6 20h-2q-7 7 -20 22q-8 3 -17 12v17l-6 8q1 6 0 17q-4 5 -9 12q-1 9 2 28t7 23l-6 11q-16 54 0 114v3q0 5 4.5 12.5t4.5 13.5v5q-4 2 -3 14v18q-4 4 -9 11q2 20 3 51q-3 14 -8 35 q-1 3 0 8q6 8 14 23q4 19 -3 37l-6 3q-1 9 4 21t5 13q2 14 -12 48l-5 3v9q-11 1 -32 5q-10 6 -31 15q-8 0 -25 5q-1 4 -3 9q-5 0 -12 4t-5 18zM214 356q0 -9 5 -18.5t6 -12.5q-2 -15 0 -43l12 -20q-17 -20 -17 -31q0 -5 2 -12l6 -5q-2 -6 -3 -15q19 -7 29 -20 q-10 -19 -10 -25q0 -10 24 -17q2 -20 2.5 -21.5t11.5 -10.5q1 -4 3 -8q14 0 43 -3q1 0 11 -5q6 -2 14 -1l9 6q7 1 18.5 -2t18.5 -1q5 1 13 15q12 18 12 19l23 17q0 8 3 23q11 3 26 9q4 3 5 15t3 16q6 3 12 9q1 5 -1.5 10t-1.5 9q5 6 11 15q1 7 0 8q-12 13 -11 26q1 3 3 8h5 q5 11 6 23q1 13 -6 31l-5 3q1 10 2 29q0 4 -1 8q-2 8 -1 12q4 7 8 17q0 8 -5.5 14.5t-5.5 8.5q-2 7 5 31q2 28 0 34q-4 5 -8 11q3 13 3 37l-9 3q3 16 3 15l11 -6q7 11 9 11q-1 0 -6 14q-2 3 -5 6l2 29q-7 5 -25 14q4 18 5 45h-37q-7 7 -19 15q-6 -1 -18 0q-8 5 -19 11 q-7 0 -23 3q-3 -2 -6 -6q0 1 3 -14q-5 -5 -17 -11q-7 -1 -20 4q-16 7 -17 7q-37 7 -68 3v-54q-5 -9 -9 -20q3 -8 6 -26q-5 -4 -9 -8q3 -7 3 -26l-6 -9q-1 -11 5.5 -24.5t6.5 -20.5q-4 -4 -7.5 -8.5t-3.5 -26.5q-1 -18 -4.5 -19t-3.5 -2q0 -4 10 -12q1 -5 1 -11 q0 -11 -6 -35.5t-6 -33.5zM328 749l11 -6v-6q4 1 9 0l-6 -8q4 -3 11 -9q0 5 3 12q0 4 3 11q4 1 11 3v8q-23 9 -42 12q-1 -6 0 -17z" />
<glyph unicode="V" horiz-adv-x="706" d="M17 742q4 12 9 23q2 -4 5 -8q9 0 26 -3q6 -3 6.5 -10t2.5 -11h3q3 -1 5 -4t2 -4q0 -2 -4 0q-1 -3 -6 -5.5t-9 -2.5q-14 0 -40 25zM92 757v8q2 2 9 6v3q23 19 106 19q21 0 33 -2q72 -12 81 -20v-6q1 2 3 -11q-1 -1 -3 -6q-4 -8 0 -12l15 -6q-1 -5 -3 -14q1 -2 2 -3 q0 -3 -2 -6q-5 1 -12 0h-17q-3 -4 -9.5 -7.5t-23.5 -1.5q-18 3 -25 1q-2 -4 -6 -9q-4 0 -12 -3q-1 -2 -2 -12q0 -7 5 -20l6 -3q0 -7 3 -23l6 -6q-3 -11 -3 -35h9q4 -9 9 -31q0 -11 2 -32q7 -15 18 -41q-1 -18 0 -20l31 -23q-5 -5 -11 -12q1 -4 0 -12q5 1 14 0q1 -3 3 -8 l26 -9q1 -4 0 -12q-4 -2 -8 -5v-15q10 0 37 3q3 4 6 9q-4 18 -6 17q1 2 2.5 6t3.5 14l-11 9q3 5 2 15q9 1 32 2q3 2 6 6q-1 10 0 26h6q5 2 9 12q9 24 8 46q-3 11 -3 15q5 6 9 14q6 34 -14 64q7 9 14 26q0 -4 -6 12q4 24 0 32q-2 4 -11 8t-12 6q-2 7 -11 18v2l-3 3h-6v9 l-12 15q1 6 3 8v9q13 16 35 20q11 3 29 6q22 3 48 0q36 -3 48 -3q1 -2 2 -6q11 -1 27.5 3t24.5 4q6 0 12 -1q7 -5 18 -11l39 -12q12 -6 21 -29l6 -3q0 -2 -2.5 -3.5t-3.5 -2.5q2 -9 -2 -26h-9q-5 -4 -12 -9q-12 1 -34 -2q-10 -12 -24 -27q-1 0 -29 -11q-1 -10 -2 -19 q-1 -1 -12 -10q8 -25 3 -38q-7 -17 -15 -23l-6 -3v-9q-2 0 -5 -2q0 -3 3 -9q7 -5 17 -15q-2 -5 -3 -14l4.5 -4.5t1.5 -7.5q-5 -3 -12 -8q-1 -7 -6 -21l-14 -14l-9 -29q1 0 3 -6q6 2 15 6q2 -4 8 -9v-12q-20 -12 -23 -20q1 -3 0 -8q-1 -1 -23 -15q1 -7 1 -13q0 -14 -6 -28 q-8 -19 -10 -26q1 -6 0 -17q-4 -4 -8 -9v-20q16 4 17 3q-3 -13 0 -15q-3 1 -9 0l-11 -14q10 -22 9 -29q-5 -3 -12 -6q2 -32 -6 -38q-1 -3 0 -8l9 -9q0 -2 -2 -12q-2 -7 5 -8q3 -1 8 2t6 4q1 -5 3 -9q-17 1 -20 0q-3 -7 -9 -15h-6q1 -4 0 -11q-5 -4 -14 -12v-9q-2 -1 -6 -2 v-12q1 -4 6 -9l26 -3v-20q-10 3 -16 3q-9 0 -17 -6q-12 -9 -19 -11q-13 -2 -40.5 -7t-29.5 -5q-5 5 -14 12q-7 0 -21 8q-1 6 -5 18q-4 2 -9 5q0 9 -3 27q-5 4 -12 11q0 8 -2 23l-18 21v11q2 0 3 1q2 2 -3 2q-8 32 -9 47q3 7 3 26q-6 7 -14 23q2 8 3 26q-6 9 -15 26 q-1 17 -8 55q-4 10 -12 32q-2 5 -3 12q3 1 3 26q0 26 -3 35t-14.5 23t-14.5 20q-9 20 -11 49v23q-5 6 -12 18q0 9 -3 29q-4 3 -9 8q0 7 -3 21l-5 3v11q-6 14 -15 38v6l-20 5q-1 4 0 9q4 2 11 6v6q4 1 12 6q0 1 -6 10.5t-8 15.5h-12q4 1 -6 3zM336 325h14q1 -4 3 -9q6 -1 9 0 q2 -2 6 3q-18 17 -32 40q-1 -7 0 -34z" />
<glyph unicode="W" horiz-adv-x="731" d="M16 738q0 8 1.5 16t9.5 13q24 16 57 9q3 -2 7.5 -4t9.5 -2q6 5 12 9q10 0 30 3l3 6q5 0 33.5 -7.5t31.5 -10.5q0 -5 3 -12q4 -1 12 -2q2 -7 2 -14q0 -27 -17 -31q-5 1 -15 0q-4 -5 -13 -10.5t-28 -13.5q-1 -7 3 -23q8 -5 18 -15q1 -7 -2 -15q-2 -4 -4 -9q-1 -6 5 -17.5 t6 -14.5q1 -9 -4 -20t-4 -19l5 -12q-2 -6 -2 -21l5 -2q5 -13 12 -39q-2 -14 0 -39l9 -5q3 -22 -9 -24l12 -21q-1 -10 0 -27h6q3 -5 9 -11q10 -2 24 -3q-1 4 0 11q5 4 12 12q-1 4 0 9q5 7 11 21q-1 2 -3 9q1 3 5.5 20t3.5 27q-3 14 -3 18q1 5 9 11.5t9 9.5q2 6 -1 28t-2 31h6 q-2 2 -3 9q0 1 15 24q1 9 -2.5 11t-6.5 3q-10 22 0 39l3 3q11 9 12 12q-5 17 -3 18q-3 7 -12 20q-11 6 -24 18v6q-3 0 -9 3q-4 8 -14 24q-4 1 -12 6q-1 3 0 8l9 3q1 11 12 27h11q24 5 30 3q2 0 12 -6.5t21 -5.5q8 4 20 9q8 -2 27 -3l9 6q38 8 71 0q7 -2 19 -17t28 -13 q10 2 32.5 18.5t39.5 17.5q6 1 16 -2.5l10 -3.5q18 0 51 -3l3 -9q6 -1 18 0q16 2 19 2q13 0 19 -11q4 -7 4 -14q0 -10 -12 -17l-22 -13l-32 -45q-4 -11 -4 -34t-2 -34q-1 -1 -5.5 -6.5t-3.5 -10.5q6 -8 12 -21q0 -4 -3 -6.5l-3 -2.5q-2 -7 1 -18t2 -15q-8 -6 -18 -17 q2 -7 3 -24q0 -5 -9 -27q8 -23 6 -32q-4 -3 -9 -6q-1 -10 -6 -30q-6 -7 -12 -18q3 -5 3 -21h-6q-12 -30 -12 -32q1 -5 6.5 -8.5l5.5 -3.5q-4 -2 -10 -14q0 -8 -2 -24q0 -1 -5 -9.5t-3 -14.5q4 -4 8 -12q1 -5 -5 -16t-6 -14q-1 -5 1.5 -8.5t3.5 -5.5v-18l-11 -9 q-2 -10 4 -16.5t6 -7.5l-7 -9l-9 -3q-1 -7 0 -12v-8h20q-4 1 6 3l6 -9q1 1 3 -9q-5 -5 -18 -12q-27 -10 -27 -17q0 -6 4 -19q-13 -10 -24 -29q-6 -11 -9.5 -14.5t-14.5 -6.5q-15 -4 -20 -3q-6 1 -12 10t-9 11q-15 10 -48 21q2 2 2 7q0 2 2 3.5t8 5t5 19.5q-2 16 -8 21 q-1 1 6 12q-5 7 -12 23q4 16 3 48q0 3 -23 20q1 11 6 33l6 6q1 5 -3 56q-10 0 0 12q-3 15 -3 9q0 3 2 13q1 7 1 11q-7 7 -15 23q-2 17 -6 39q6 0 3 3q-2 2 -6 12q-1 0 -3 -6h-12q3 -4 6 -9l-30 -9q-5 -42 -5 -32q0 -12 14 -30q-4 -1 -9 -3q1 -4 0 -12h-6q0 -6 -3 -21 q-5 -8 -11 -20q-1 -7 17 -24q-3 -8 -3 -9q-1 -4 -3 -9q-5 0 -14 -3l-6 -9q1 -6 6 -18h12q-6 -8 -3 -8l-3 -6q-2 -1 -9 0q0 -1 -3 -12h-6q1 -7 3 -12q1 0 0 -2q1 -1 3 -1q-2 -12 -3 -9q1 -2 -3 -6v-18q5 0 12 -3q-3 -2 -4 -3q1 0 2 -1q12 0 12 5q0 2 -4 2q-2 0 6 6 q5 -2 14 -9q6 -8 9 -14l-3 -9q0 -1 -6 -12t-6 -15t3 -6q-4 -10 -17 -24q-9 2 -18 3q-5 -1 -8.5 -11t-6.5 -12q-6 -1 -18 -6q0 -4 -3 -9q-8 -9 -38 -12q-7 13 -18 30q-6 0 -21 6q0 3 -3 8h-9q-2 4 -6 9q1 7 3 18l6 21l6 3q2 12 -6 29q-11 24 -12 24q1 8 -2 24q-6 5 -12 15 q-8 29 -3 62l6 6q6 25 3 44q-5 4 -9 9v9h-9q-9 3 -12 15q2 17 0 50q-4 5 -9 12q-5 22 -3 39q1 3 8 19q6 13 4 25q-4 3 -9 9q2 4 3 9h-6q1 6 -3 21q-6 2 -12 5q-2 7 -2 14q0 5 2 16.5t2 17.5q0 7 -2 15q-15 15 -32 38q-1 7 3.5 17t5.5 13q2 16 -6 32q-5 4 -12 12q0 4 -3 12 l-27 15q-6 4 -26 15zM193 311q7 -8 21 -27h18v9l-9 3v9q1 -4 3 6q-4 7 -9 18v-12zM238 302h6q-2 1 -1.5 3.5t-4.5 2.5v-6zM324 110l3 -15q-2 15 -3 15zM356 480q4 -31 3 -36v-5h9q4 1 9 5v15l9 9q-1 7 0 18q-5 1 -15 6v-6h-12q1 -2 -3 -6zM371 554l3 -15q-2 15 -3 15z M436 658l6 -3q4 -11 9 -27q-2 -6 -3 -24q5 -5 12 -14q4 -14 1 -33q-3 -23 -1 -33q3 -5 9 -14q1 0 15 -3q4 7 20 20q8 2 21 6q8 4 16 29q10 32 11 34q-8 7 -18 20q1 3 0 9q17 11 19 17q2 3 5 31q-24 10 -24 18q0 5 6 17q-5 4 -12 9q-3 -3 -15 -3l-23 18q-7 -11 -21 -22 q-3 1 -9 -2q-3 -8 -9 -21q-5 -2 -12 -8q-4 -12 -3 -21zM466 483q4 -7 21 -18q7 -2 13 -2q14 0 20 14.5t11 29.5q-7 0 -21 3q-3 -7 -6 -18q-5 2 -14 3v-6q-7 -2 -24 -6zM481 436q5 -8 17 -18h9l3 9l-3 9q-3 0 -20 3q2 -3 -2 -3q-1 -1 -4 0zM513 406l3 -9q-1 9 -3 9z" />
<glyph unicode="X" horiz-adv-x="754" d="M16 49q0 12 9 41q7 0 24 -3q13 0 38 3q10 8 29 18q2 0 22 -1q13 0 21 6l3 6l4 4t4 11q0 12 2.5 15t7.5 8q0 10 5 29q11 12 27 35q5 20 23 55l14 9q-1 9 0 26q5 2 12 6q4 4 5 14.5t4 14.5q5 1 11 3v9q7 5 15 14v12l6 6q10 40 9 58q-3 22 -24 49q-4 2 -8 6q-6 18 -21 53 l-17 14l-3 15q-4 3 -9 8q1 8 0 21h-3q-9 4 -16 19q-12 23 -13 24q-10 6 -26 21q-2 2 -5 13q-2 7 -10.5 10.5t-20.5 1.5q-16 -2 -19 -2q-56 3 -73 23q-1 1 -6 9q-3 15 20 31q19 14 35 16q6 -3 21 -3q7 5 17 11q4 1 29 3q27 -3 85 -3l13.5 4.5t15.5 1.5l6 -6q7 -1 32 0 q33 3 32 3l11 -6q2 1 6.5 5t11.5 4q3 0 12 -4.5t17 -4.5v3q8 0 23 3l3 6q16 2 45.5 -1.5t44.5 -1.5q1 0 10 3t10 3q8 -4 21 -9q41 -3 82 -7t57 -31q10 -15 9 -20l-6 -3q-11 -17 -17 -19q-13 -3 -26 -7q-5 -5 -15 -12q-8 3 -26 3q-12 -2 -29 -17q-8 -16 -23 -35h-3 q0 -9 -3 -23q-9 -6 -21 -18q1 -5 0 -14q-2 -4 -37 -21q14 -29 -3 -43l-9 -3q-1 -4 1.5 -8t1.5 -7q-8 -4 -18 -11q-3 -6 -2 -14t0 -13q-6 -7 -12 -20q-1 -9 7 -17l7 -9q1 -1 -2 -18h-6q-1 -3 2 -9.5t4 -7.5q0 -3 -1.5 -14t-1.5 -15q5 -5 17 -12q7 -1 20 0q4 3 5 0t1 -6 q-19 -8 -19 -13q0 -3 8 -4v-9q2 0 8 -3q3 -1 12 -29q-5 0 -15 -3q0 -5 -2 -11q21 -4 26 -6.5t14 -17.5l6 -3q-1 -4 0 -8l26 -3q-1 -2 3 -6q-5 -21 -5 -32q0 -17 11 -20h20v-12q-5 -2 -14 -6q5 -7 3 -9h6q6 -10 20 -23q11 1 32 0q18 -4 41 -20q1 -4 5 -9q10 1 30 -3l11 -14 q1 -5 0 -12q-7 -3 -17 -12q-2 -2 -2 -7t-1 -7q-8 -14 -16.5 -19.5t-18.5 -4.5q-16 1 -18 1q-12 -6 -34 -12q-49 -7 -70 -3q-1 0 -6 3t-6 3l-9 -6q-3 -1 -14 3q-21 -2 -61 0q-7 1 -39 16q-27 12 -43 10l-6 -6q-8 1 -26 -3q-3 -5 -11 -11h-18q-44 -9 -43 -9q-10 4 -27 9h-55 l-3 -6q-9 -1 -31 3.5t-30 5.5q-16 -3 -52 0q-5 4 -9 8q-14 -2 -41 0l-10 12.5t-5 16.5zM279 116q8 -5 26 -11h14q6 -6 24 -15q29 -8 43 3q2 4 6 9q17 -2 47 3l11 14q1 2 1 29t-1 29q-7 8 -17 21q-2 9 -9 26q-10 5 -26 15q-2 6 -9 14q-2 1 -14 3q-4 -6 -9 -12q-6 2 -15 3 q-3 -2 -11 -6q3 -3 3 -8q0 -17 -12 -24q-6 1 -18 -2q-2 -5 -8 -12q12 -19 12 -26q0 -5 -6 -3q1 -20 2 -15q-1 -10 -2 -14v-3q-5 -2 -32 -6v-12zM315 668q0 -20 22 -20q6 0 17 1l9 -15q-16 -3 -38 -9q-2 -3 -6 -8q4 -1 9 -3v-9q1 1 3 9q19 -2 14 -3h9q4 -3 9 -9q-1 -5 0 -14 h6q1 -2 8 -6q3 4 9 11q6 3 15 9q0 5 3 15q1 2 15 10q9 6 11 19q0 3 -6 35h12q2 2 0 8v6h-15v-20q-8 -1 -26 3q-3 1 -14 19q-8 13 -24 10q-6 -6 -14 -12q-4 2 -15 3q-3 -10 0 -11q-2 0 -6 -3h-6q-1 -10 -1 -16z" />
<glyph unicode="Y" horiz-adv-x="755" d="M14 741q0 -2 8 13q5 -2 11.5 -4t6.5 -4q-1 -2 -3 -3.5t-9 -3.5q-14 -2 -14 2zM51 748q0 4 6 12q24 14 46 11q1 0 14 -5.5t21 -3.5q7 10 20 21q5 1 64 0q3 -3 8 -6.5t15 -2.5q2 4 6 9q29 -9 31 -9q1 0 8 3t10 3v-3q5 -6 17 -15q6 1 17 -2l21 -26q-1 -5 0 -12 q-11 -8 -13 -11t-5 -18q-3 0 -9.5 -1.5t-7.5 -1.5l-20 9q-31 3 -31 -13q0 -5 5 -22q-1 0 -3 -8q-1 -7 0 -9l23 -17q1 -5 6 -12q3 0 8 -3q0 -5 3 -11h9l-3 -15q2 -1 9 -1q4 0 5 -2v-11l12 -12q18 9 21 9q7 0 16 -15q10 19 21 38h8q7 4 18 11q-1 3 -9 15q5 2 12 9q7 13 7 41 q1 32 4 42q-6 4 -14 12q1 5 0 14q-4 -6 -9 -17q-12 2 -35 9q-2 3 -8 8q0 6 3 18q4 7 25 7q25 0 29 1q5 7 12 15l17 6q14 2 44 -1q29 -3 43 1q8 6 26 14q9 1 24 -5t16 -7q7 -1 17.5 2.5t11.5 3.5q24 2 52 -5.5t35 -20.5v-11l12 -18q-9 -16 -24 -37q-1 -1 -24.5 -12t-24.5 -11 h-31q-11 -24 -24 -32q-5 0 -11 -3q-1 -8 -6 -23q-6 -2 -14 -6q-1 -6 -3.5 -19t-11.5 -27h-6q-2 -10 -11 -29q-7 -4 -15 -12q2 -8 0 -23q-7 -3 -17 -11v-26q5 -2 12 -6q-1 -4 0 -11h-12q-3 -6 -9 -12q-7 1 -20 -3l-8 -23q-4 -2 -9 -6q0 -5 -3 -14q-8 -5 -17 -15q1 -7 0 -23 l-6 -6q1 -5 0 -14q-4 -1 -9 -3q0 -6 -3 -23h15q-1 -9 0 -9q-6 -3 -15 -11q-1 -4 -5 -44q2 -6 2 -2v-6q8 -4 24 -18v-11q-4 -1 -9 -3q-1 -5 -6 -17l-9 -6q7 -10 15 -23q-1 -4 0 -9q6 -9 16 -10q14 -2 18 -4t10 -13.5t14 -12.5q6 -1 20 4.5t22 5.5q5 0 10 -2q4 -5 11.5 -9.5 t16.5 -2.5q12 2 18 1q9 -1 43 -17v-12q-2 -4 -8 -9q-5 1 -15 0q-9 -2 -20 -17l-12.5 -26t-17.5 -14.5t-34 -2.5q-1 -1 -4.5 -5t-9.5 -4q-6 4 -15 9q-15 3 -34 0q-8 -4 -20 -9q-14 -2 -39 2t-34 4q-2 -3 -7 -5t-10 -2l-37 10q-5 -2 -12 -3q-24 -1 -78 3q-18 3 -40 14 q-7 7 -21 17q-9 2 -31 6l-3 12q3 9 11 20q10 1 32 6q6 4 14 8q10 0 29 3q2 4 6 9q11 5 29 3q3 -1 16 -6.5t19 -5.5l14 9q8 -1 20 0v6q6 4 12 11q0 9 3 29q5 11 11 35q0 2 -2.5 10.5t-2.5 9.5h-12v9q5 7 12 20q1 10 1 20q0 8 -2.5 25.5t-1.5 29.5l-6 3q0 14 -6 40 q-8 7 -17 18q2 10 0 31q-4 3 -9 6q0 9 -3 26q-5 3 -10.5 10t-15.5 45q-1 0 -11 3q-4 -3 -9 -9q1 -3 0 -8q-7 2 -26 5q-1 4 0 9l14 9q1 5 3 11h3q2 12 -7 27q-12 19 -13 22q2 4 3 12q-5 6 -12 17q0 8 -5 23q-12 7 -29 18q2 2 -3 5q0 8 3 18l-23 17l-6 3q-1 8 -6 17 q-8 1 -26 3q-10 7 -29 15q-2 0 -25 1q-14 1 -18 7v18q-5 6 -12 17zM308 345q0 2 3 2q-4 -1 6 -3q-2 -3 -3 -6q-6 4 -6 7zM311 312q5 3 9 6q3 -1 6 -1q-1 -1 -6.5 -3t-8.5 -2zM324 602q0 8 7 10q4 1 5 -1q0 -3 -2 -6t-5 -4q-5 -1 -5 1zM355 526q1 -1 8 0q1 -4 3 -9q12 -3 3 3 q0 -2 3 8q-2 1 -3 12h-14q-1 -5 0 -14zM363 726q2 1 3 2q7 -8 0 -6q-3 1 -3 4z" />
<glyph unicode="Z" horiz-adv-x="597" d="M14 41q-3 22 33 67q10 9 23 24q2 7 -1 20q-3 12 1 21q8 4 20 15v8q6 3 12 9q2 9 9 26q7 5 18 15q1 12 8 35h3q5 9 15 21q3 0 9 3q-1 6 3 17q7 3 17 12q-1 5 0 12q10 5 27 17q5 10 17 30q4 2 9 6q1 14 9 43l6 3q-1 3 0 9q2 6 15.5 15t16.5 15q-1 6 0 17l20 15v9q4 2 9 5 q0 6 3 18l6 3q-1 7 0 20q15 9 32 21q0 8 3 23l12 15q4 2 9 6q4 9 6 47q-14 8 -36 17q-20 4 -52 -3q-7 -4 -15 -8q-16 -4 -39 0q-31 5 -37 5q4 -32 0 -35q-6 1 -15 0q-11 -2 -32 -17l12 -12q-1 -3 0 -9q-5 1 -12 0q-11 -4 -6 -32q-8 -1 -18 -6q1 -6 0 -17q-3 -5 -5 -9 q11 -7 5 -27q-5 -4 -11 -11v-9q-10 -4 -27 -9q-23 -2 -32 3q-5 3 -10.5 29t-5.5 46q0 8 1 13q9 10 18 29q1 6 -3.5 12t-5.5 9q-6 30 6 55q6 4 12 12q0 3 -3 10t-3 8q-1 4 7.5 24.5t10.5 22.5q16 15 41 8q2 -2 8 -5q11 -1 34 8q29 12 31 12q4 -1 12 0q-3 1 2 3q5 0 14 -4.5 t10 -4.5q16 3 53 3q4 0 27 -5q20 -4 28 -4q8 1 17 6t19 3q0 -3 2 -9q5 0 17 -3q9 -3 13 -3q6 0 25 7.5t30 4.5l12 -12q10 -1 26 -8q3 -8 9 -21q7 -5 18 -14v-9q-7 -5 -15 -15q1 -7 0 -20q-5 -7 -12 -18l-2 -9q2 -5 5 -17q-12 -7 -26 -18q1 -8 0 -20q-11 -5 -23 -12l-3 -9 q-6 -8 -35 -38q6 -13 6 -19q0 -2 -18 -19q7 0 0 -21q-3 -5 -9 -11l-18 -3l-2 -6q-10 -4 -27 -12q-2 -40 -9 -50q-12 -4 -29 -14v-9l-12 -21q-4 -2 -11 -9q-3 -6 -9 -20h-3q1 -6 0 -15q-10 -3 -24 -8q-1 -14 -5 -36q-5 -3 -15 -11q-24 -23 -24 -51q0 -10 3 -20 q-29 -9 -29 -21v-4q1 -3 1 -4q0 -12 -7 -23q-6 -3 -17 -9q-1 -5 -3 -12q9 -2 26 -9q2 -4 6 -9q12 -3 38 -11q7 -6 18 -12q9 5 23 9q5 -4 12 -9q5 1 14 0q2 5 6 12q14 4 100 -3q7 12 20 26h6v9q4 14 30 26q-3 3 0 7q3 6 3 8q-5 4 -9 9q-3 9 14 50q0 1 2.5 4t2.5 5 q0 3 -12 17.5t-10 25.5h3v6q7 4 17 12q2 9 9 26q4 2 12 12l3 3q6 2 35 -12v-11l6 -3q-3 -7 -3 -24q1 -2 20 -20q1 -4 0 -9h-3q0 -1 -14 -15q0 -6 3 -3l11 -11q-9 -12 -9 -20q0 -14 39 -24q-4 -7 -9 -13q-10 1 -32 -2v-6q-3 0 -9 -3q6 -32 0 -53q4 -1 15 -5v-12 q-6 -4 -12 -12q-1 -4 2.5 -13t6.5 -10q-4 -7 -3 -9l-24 -15q-12 -10 -38 -23q-20 -4 -49 -4q-43 1 -47 1q-143 -6 -176 -6q-10 1 -27 3q-3 3 -8 6q-7 1 -19.5 -4t-19.5 -5q-8 4 -20 9q-21 -3 -62 0l-17 14l-13.5 8t-7.5 10z" />
<glyph unicode="^" horiz-adv-x="477" d="M31 604q23 40 26 44q4 1 12 5q2 4 5 9h5q3 12 14 29q9 1 22 7q3 9 10 22q7 5 19 17v7q4 2 9 6.5t13 15.5q28 32 58 34q6 0 48 -12q6 0 17 -3q3 -4 10 -12q7 -1 19 -7q6 -11 17 -26q8 -4 20 -15q2 -9 9 -24q17 -20 32 -27q4 1 14 -2q1 -2 3 -7q14 -23 26 -29h3q5 -9 4 -30 l-2 -31q0 -4 2 -22q-12 -10 -41 -24q-11 1 -34 0l-4 -5q-15 -3 -32 -2q-19 2 -40.5 16.5t-29.5 29.5q-1 8 -12 19q-3 1 -22 0q-2 0 3 -14q-9 0 -27 -5q-5 -2 -21 -18q-12 -12 -30 -13q-55 -6 -72 -3q-8 -1 -22 0q-3 4 -10 10q-2 0 -7 2q-4 6 -5 15q-1 15 -3 19.5l-4.5 10.5 t-1.5 13z" />
<glyph unicode="_" horiz-adv-x="885" d="M20 -66q3 2 8 6l11 21.5t15 14t36 1.5q24 0 29 -2q5 -5 15 -11q10 -2 25 8.5t30 8.5l6 -6q6 -1 26 0q2 0 13.5 3t13.5 3l3 -6q5 0 16.5 -1.5t12.5 -1.5q4 3 15 3q6 -5 17 -11q9 2 29 0q6 -6 15 -12q9 -2 41 -3q34 0 41 3q2 4 6 9q9 -2 29 0q6 5 14 11q8 2 16 2 q12 0 35 -6t35 -6q7 0 13 3.5l16 9.5q26 9 55 6q1 0 11.5 -3t12.5 -3q14 6 40 12q15 1 54.5 -14.5t42.5 -23.5q-1 -6 0 -18q12 -1 32 -6l12 -12l9 -3q-1 0 3 -14q-10 -4 -33 -12l-3 -6q-3 1 -8 0q-6 -3 -17.5 -18t-18 -15t-17.5 -2q-5 -4 -12 -9q-5 2 -17 3l-6 -6 q-31 -12 -50 -9l-9 9q-6 2 -15.5 -0.5t-13.5 -2.5q-1 0 -10.5 3t-15.5 3l-24 -9q-14 1 -46 0q-32 -2 -27 -3q-4 4 -8 9q-9 -1 -24 0l-12 6q-40 -5 -43 -6q-2 -6 -6 -12q-10 -3 -25 1q-21 5 -22 5q-10 -3 -35 -3q-18 7 -44 15q-21 1 -41 -3q-6 -5 -17 -12q-25 -5 -47 -3 l-12 6q-7 1 -18.5 -2.5t-16.5 -3.5q-11 0 -28 5.5t-25 6.5q-23 -2 -64 3q-11 10 -15 15q0 16 -3 41q-6 40 -5 44z" />
<glyph unicode="`" horiz-adv-x="296" d="M28 788q0 6 2 12.5t7 13.5q6 2 14 1q11 -2 14 -1q5 1 10 4q21 2 36 -4q2 -3 6 -7q5 1 16 -2q1 0 14.5 -11.5t13.5 -12.5q2 -6 8 -16q3 1 7 0q1 -2 4 -6q4 0 14 -4q7 -8 28 -22v-2q4 1 16 0l8 -8q-1 -4 0 -12l8 -8q-1 -3 0 -10l12 -18q3 -7 2 -8h-2q-1 -6 -4 -18 q-4 -3 -10 -10v-10q-2 -6 -14.5 -13.5t-21.5 -8.5q-33 -3 -44 4q-6 3 -8.5 13t-7.5 12l-17 7v4l-14 16l-12 6q-1 3 -4 8q-4 1 -14 4q-3 8 -12 20q-4 0 -12 2q-3 3 -3 9.5t-1 8.5q-6 4 -14 8q-1 7 -6 20q-1 4 -11 18q-8 11 -8 21zM69 794q0 -7 18 -9q19 -1 19 7q0 9 -21 7 q-16 -1 -16 -5z" />
<glyph unicode="a" horiz-adv-x="692" d="M20 185q4 9 8 23q-3 7 -3 26q2 5 11.5 9.5t11.5 7.5v8q7 13 17 34q0 6 3 18q6 8 43 25v3q7 -1 17 0q2 7 6 17h5q-24 6 -37 17q-2 7 -11 17l-13 5q-5 2 -6 13q0 3 -1 5q-5 3 -11 12q-2 5 4.5 46.5t11 46.5t12.5 15v8q19 28 23 32t30 20t30 17q6 -4 25 -6q9 8 26 17 q11 -1 31 0q4 1 16.5 9t18.5 8q2 0 11 -5.5t11 -5.5q15 4 46 3q9 -9 20 -17q6 5 28 8q13 -2 35 -17q2 -5 8 -11q2 -2 3 -1v2q0 3 3 2v-6l35 -19q21 -12 30 -24q2 -2 18 -28q-3 -1 -3 -5q0 -9 8 -25.5t13.5 -17.5t20.5 -4q2 -2 6 -5l-3 -6h-11q-12 -3 -12 -18v-25q0 -1 -3 -7 t-2 -10q0 -1 3 -9t2 -14q0 -1 -4.5 -8t-3.5 -15l6 -5q6 -18 2 -37q0 -4 -7.5 -14.5t-6.5 -20.5q1 -3 7.5 -12t6.5 -13q0 -5 -5 -9h-14q-1 -4 -0.5 -20.5l0.5 -16.5q1 -3 19 -14q6 -6 15 -11q3 -1 15 0.5t16 1.5l3 6q9 2 16 2q25 0 41 -42q5 -10 11 -28q-2 -7 -3 -15 q-4 -1 -11 -8q-4 -3 -8 -9v-11q-8 -6 -20 -17q5 0 5 -5q0 -9 -14 -29q-31 4 -51 -6q-5 -5 -15.5 -10t-39.5 -4q-30 1 -39 5q-7 10 -17 23q-7 7 -26 14q-9 4 -14 3q-27 -4 -43 -14v-6q-6 -5 -14 -11q-4 1 -12 0l-3 -6q-10 2 -28 3q-6 -4 -14 -8q-12 1 -35 0q-12 -6 -34 -12 q-5 0 -13 3t-10 3q-11 -2 -31 -3q-8 4 -20 9q-13 -2 -40 5q-6 12 -17 26q-10 3 -28 11q-10 6 -29 46q-7 12 -17 34q1 9 0 26q-1 3 -6.5 13t-4.5 18zM148 194q0 -4 3 -12q8 -4 20 -11q-1 -4 0 -9q3 1 8 0q5 -2 13 -14t13 -14h11q19 -5 26 -3q4 4 11 9q26 5 66 -9v-2 q0 -1 3 -1v3q21 11 23 14q-1 6 2 17h6q4 7 12 15h22q10 26 35 42q-4 2 2 6q0 1 -5 9h5q1 3 3 11q-7 5 -17 17q-2 9 -6 19.5t-17 9.5v-6q-10 -3 -37 -12l-11 -8q-22 0 -66 -3q-18 -7 -48 -17q-3 1 -9 0q-1 -5 -5 -11q-10 -4 -26 -12q0 -7 1 -14q0 -6 -7 -9q-7 1 -20 0l-3 -5 h-8zM194 379q63 -5 82 0l3 6q18 11 34 14q15 2 43 -3q1 7 6 23q-5 0 32 -2q21 0 28 5q4 3 6.5 14l4.5 20q-12 6 -37 20q-2 3 -6 8q-5 1 -17 6q-4 7 -17 17q-16 2 -46 9q-1 0 -9 9q-6 6 -16 5l-6 -6q-11 1 -31 0q-8 -5 -20 -11h-6q0 -11 -6 -29h-11q-4 -20 0 -31q7 -10 6 -9 q-2 2 -6 -2q2 -10 0 -15q-6 -4 -11 -11q1 -12 0 -37z" />
<glyph unicode="b" horiz-adv-x="653" d="M20 737q0 31 16 37q4 -1 11 0l6 6q9 1 21.5 -3t16.5 -3q13 10 29 20q8 2 21 2q58 0 72 -13q2 -9 5 -21q8 -16 38 -32q1 -5 0 -14q0 -1 -3 -2t-3 -4q0 -1 5 -12t4 -20q-5 -7 -12 -20q-4 -22 0 -38q6 -5 12 -14q0 -4 -3 -6.5l-3 -2.5q-2 -6 1 -11t5 -9q33 -3 38 0q0 5 3 11 q9 9 26 12q26 5 55 -3q7 -4 17 -9q4 3 15 6q1 0 31 -8t33 -9q2 -5 8 -12q2 -2 6 -2v0q6 0 13 -7q9 -10 10 -11q13 -6 32 -21q5 -6 8.5 -22t7.5 -20.5t10 -12.5v-9q4 1 9 -2q1 -2 1 -8t2 -7h9q9 -2 11 -10q3 -18 3 -19l9 -3q-1 4 -3 -23h-3q5 -9 6 -32l-9 -9q-1 -11 5 -17.5 t7 -8.5q-2 -9 -3 -32q2 -54 0 -64q-5 -6 -12 -17q0 -11 -6 -32q-7 -4 -17 -14q-5 -10 -6 -44q-2 -35 3 -41q4 2 12 3q2 18 4 28q5 18 13 22q-2 1 -3 6q5 -2 18 -3q-1 -9 0 -9q3 -1 11 -3v-20l-6 -3q2 -5 0 -21l-5 -2v-9q-4 0 -9 -3q-1 -5 -6 -12q-6 -3 -18 -5q-6 0 -14 -12 q-20 -1 -26 0q-4 -7 -8 -15q-11 -1 -21 -2q-13 3 -17 2q-13 -2 -35 -5v-6q-6 -5 -18 -12q-15 -5 -62 -5q-46 0 -62 5l-3 9q-9 0 -29 3q-1 0 -21 11q-13 7 -26 6l-29 -8v-6q-8 -23 -43 -18q-3 1 -14 8t-15 7h-3q-3 5 -5 31q-2 30 -5 36t-8 23q0 1 1.5 10t1.5 13q3 1 6 3 q1 9 -4 23l-7 23q-6 5 -3 6q4 3 4 17q0 6 1 9q6 6 12 15q-1 12 0 35q4 7 9 20q0 -1 -3 11q0 -1 1.5 2t1.5 4q1 14 0 35q0 3 -3 14.5t-3 17.5l9 26q2 17 -6 36t-6 34q4 7 9 17q2 10 -2.5 26.5t-3.5 28.5q0 9 5 49q4 35 4 56q0 19 -3 32q-4 3 -9 8q0 7 -3 21q-4 2 -9 6v5 q-7 5 -57 9q-43 4 -47 17q-1 5 -1 10zM300 330q5 -11 17 -32l6 -3q-1 -4 0 -9q8 -1 17 -3q-7 -2 -26 -5l3 -6q-7 -5 -7 -8q0 4 7 -12q4 2 9 5q3 1 23 -8q-5 -3 -2 -14q2 -6 5 -12q4 1 9 2l5 3q-1 20 0 29v6q19 10 19 17q0 4 -5 4q-8 0 -19 -9q-1 2 0 8q-6 0 -18 3 q-4 6 -14 12q0 -2 -6 -3l-3 6q4 0 12 3q0 4 2 9q4 -1 9 0l3 5q7 1 26 3q3 16 9 20t29 9l-6 12l-17 6q-10 -7 -26 -15h-44q-1 -9 -6 -20q-4 0 -11 -3z" />
<glyph unicode="c" horiz-adv-x="644" d="M30 277q-5 25 3 46l6 3q-1 10 0 23q5 13 11 35q-1 6 0 17q10 13 23 38q-1 4 0 11q9 7 20 18q3 9 12 26q6 2 15 8q0 7 5 21h6v3q5 2 23 17q2 5 6 12q10 0 29 5q7 8 23 21v5q6 4 17.5 4.5t17 3t11.5 7.5q9 0 26 3q8 4 21 8l17 -5q11 -1 25 2t27 1q13 -8 38 -18 q19 -2 55 -14q2 -4 5 -9q5 0 12 -3q0 -4 3 -9q4 0 14 -2q2 -4 6 -9h12l20 -15v-8q12 -12 29 -38q0 -11 6 -32l29 -20q-8 -25 0 -61q-22 -4 -23 -11q-5 -21 -6 -23q-5 -8 -41.5 -25t-48.5 -16q-5 1 -30 14.5t-28 17.5q-1 1 -6 17q-4 4 -14 5q-13 0 -17 2.5l-12 7.5q2 10 9 29 q1 3 11 8q11 19 6 41q-6 6 -14 17q-1 4 -3 9q-14 1 -41 6q-3 0 -21 10q-15 7 -25 4v-9q-10 -1 -32 -2q-2 -10 -12 -24q-5 0 -17 -5v-9l-17 -20h-6q4 -3 3 -9q-8 -6 -8 -10q0 -7 -4 -13q-3 0 -8 -3q-1 -7 -6 -20q-1 -1 -9 -3q8 -1 8 -4q0 -5 -11 -8q1 -6 0 -20l-6 -3 q0 -13 3 -49q-4 -1 -14 -6q5 -2 3 -8q-1 -7 -6 -9q1 -4 3 -15h9v-5h2q0 -19 6 -44q5 -4 18 -4.5t15.5 -1.5t18.5 -34q6 12 9 14l20 3q10 -21 29 -46q8 -3 32 -3t32 3q7 8 23 17q12 -3 35 -6q13 1 19.5 11.5t11.5 20.5q3 1 6 3v9h9l9 14q-2 8 0 29q2 0 5 6q10 -1 29 3 q3 4 9 8h12q3 5 8 9q16 3 34 -6t24 -20q0 -4 3 -11q11 -8 23 -26q2 -9 -4 -24t-10 -17h-9q0 -7 -3 -20l-9 -9q0 -9 -2 -26q-32 -10 -50 -26v-6q-2 -6 -20 -14q-7 -4 -24 -3t-19 0q-1 -5 -3 -12q-10 -11 -23 -17q-10 -1 -32 -6q-7 -5 -17 -11q-14 -3 -36 0q-24 3 -34 3 q-32 -2 -26 -3l-11 5q1 0 -37 -1q-21 -1 -33 7q-3 6 -11 15q-4 -1 -9 0q-4 4 -9 8q-7 1 -20 6q-3 7 -12 17h-8l-21 15q-1 6 -5 17q-8 4 -19 18q1 10 -2 31q-7 9 -17 24q-2 10 -6 23q-3 0 -8 3q-1 10 -6 31q-7 7 -15 18q0 13 -5 40q-4 5 -9 12z" />
<glyph unicode="d" horiz-adv-x="644" d="M28 364q-2 15 3 29l6 2q-2 7 0 24q8 6 17 20q-2 10 -2 35q4 2 8 5q-1 6 0 18q11 6 23 14q6 13 18 32q4 0 11 3q3 5 9 11h9l5 12h6v9q7 0 20 3q3 0 25 12q19 11 25 11q5 -5 14 -12q18 -7 32 -3q3 4 7 8q7 8 16 7q8 -6 20 -12q9 -1 16.5 4.5t15.5 4.5q1 -4 3 -9h9 q23 -6 43 3q0 40 -6 49q-4 2 -8 6v9q-4 2 -9 5q0 6 -3 15q-9 1 -26 6q-10 8 -32 17q-5 -4 -20 -6q-13 10 -29 21q-5 1 -35 -3q-17 31 -17 36q0 7 3 16h6q4 6 17 14q6 -2 23 -3l9 6q63 20 121 17q1 0 9 -2.5t9 -2.5q13 1 37 0q4 -4 12 -9v-6q5 -3 14 -11q12 -16 3 -41 q-9 -7 -3 -3q2 1 3 -6q4 -18 3 -37q2 -7 3 -3l-2 -2q1 0 5 -1q1 -8 0.5 -13.5t-0.5 -12.5l-6 -3q-1 -3 -6 -20q11 -10 12 -23q0 -1 -1.5 -10.5t-1.5 -12.5l-9 -3q0 -7 -3 -21l-8 -2v-15q9 -8 20 -26q0 -3 -4.5 -12.5t-4.5 -10.5q0 -4 3 -10.5l3 -6.5q-2 -7 -3 -24 q7 -12 15 -37q-3 -9 -3 -29q5 -7 11 -17q5 -22 -3 -44q-5 -7 -11 -17q3 -7 6 -26q-5 -8 -9 -18q3 -5 6 -17h-3q0 -4 -3 -12q-6 -4 -14 -14v-9q11 -12 26 -26h5q10 -16 -3 -55q4 -5 10 -9.5t22 -2.5q18 2 23 1l3 -6q10 1 26 0l9 -9q6 1 14 0q6 -3 21 -34q3 -7 3 -12 q-4 -5 -9 -12v-8q0 -1 -17 -12q-7 -5 -15.5 -9.5t-22.5 -2.5q-15 2 -26 1q-10 -6 -26 -12q-18 -3 -41 3q-7 2 -38 21q-26 16 -47 16q-8 0 -16 -2q-6 -6 -17 -15q-3 1 -9 0q-19 -10 -26 -14q-1 -3 -3 -6q-17 -6 -50 -4q-40 2 -51 1q-21 -2 -17 -3q-6 4 -17 12.5l-33 25.5 q-6 2 -20 8q-10 14 -32 38q-10 9 -23 23q1 3 0 9q0 1 -17 14q-7 15 -6 44q3 52 3 43q-1 6 -2 13q-2 11 -1 16l6 9q2 21 -3 46l-9 14q0 6 5 16t4 16q-6 8 -12 18zM101 265q0 -20 13 -21q4 0 13 -2q2 -4 6 -9q-4 1 -9 0l-12 -14q-1 -4 3 -12l-6 -2q6 -4 12 -9q1 -7 7 -19 t22 -16q4 1 11 0q0 -2 -5 -9q3 0 8 -2q2 -7 9 -15q8 1 23 0l23 -9v-5q9 3 12 3q9 -5 23 -12q-3 -1 3 -6l3 9h23q20 4 32 14q0 4 3 9q5 0 17 3q1 9 0 32q5 -1 14 0q1 3 3 8l32 18q-5 21 6 49l6 3q-1 -4 -3 37q2 11 3 29l-9 9q1 11 0 32h-3q-4 10 -14 23h-6q-1 7 -6 20l-11 13 t-3 25q-8 0 -21 3q0 6 -2 14q-8 4 -18 12v6q-6 -1 -17 2q-1 5 -6 12h-9q-1 0 -6.5 6t-13.5 6q-5 -5 -11 -9q-6 -1 -12 2.5l-6 3.5q-1 0 -26 -3l-8 -30q-4 -6 -27 -14q1 -9 3 -31l-8 -3q-1 -1 0 -9q-8 -1 -21 -3q-1 -3 -11 -20q-1 -5 1.5 -8.5l4.5 -6.5q-1 -11 0 -37 q-1 0 -15 3q-1 -5 -8 -33q-6 -24 -6 -37zM133 251q1 3 5 3q4 -1 6.5 -4t1.5 -5q-1 -3 -5 -3q-3 0 -5.5 3.5t-2.5 5.5zM158 240q0 2 3 2q8 0 9 -5l-6 -4h-2q-4 4 -4 7zM532 134q0 3 3 4t3 -1q0 -1 -1 -2.5t-2 -2.5q-2 1 -3 2z" />
<glyph unicode="e" horiz-adv-x="602" d="M33 267q3 11 3 38q-4 8 -3 12q1 6 13.5 14t14.5 14q3 11 -2.5 19t-9 15.5t-2.5 38.5t5 42q4 2 9 6q0 5 3 12h6q2 10 9 28q8 5 19 16q1 6 6 18q3 4 34 31q4 0 13 3q5 7 15 16q10 0 31 6l25 19q7 1 16 -2t15 -2q5 6 15 13q13 3 38 3h40l25 -12q9 0 28 -4q7 -5 18 -12 q14 0 41 -9q5 -4 11 -17.5t10 -16.5q11 -6 31 -19q18 -16 31 -43q3 -16 13 -47q4 -3 9 -9q-3 -10 -3 -31q0 -1 5 -12t4 -19h-3q-1 -11 -6 -31l-6 -3q-3 -9 -6.5 -18.5t-10.5 -10t-21 -2.5q-2 -1 -14.5 -9t-22.5 -8q-5 0 -9 1q-4 7 -12 16q-5 -1 -13 0q-21 -17 -33 -17 q-9 0 -20 4q-1 1 -9 10q-10 -4 -28 -6q-1 0 -11 3.5t-17 2.5l-3 -6q-11 -1 -31 -4v-3q-17 -1 -31 3q-1 1 -2 4t-4 3q-5 -1 -12 -8t-10 -8q-4 -1 -12 2.5t-9 3.5q-27 4 -81 -12q0 -36 12 -56l10 -6q1 -5 -10 -25q3 -2 30 -37q21 -28 29 -28t22 -3l16 -19q-1 -4 0 -9 q6 -3 21 -1q17 2 22 1q6 -1 21 -8t26 -7q7 0 15 3q4 5 12 12q9 1 25 6v10q5 0 13 3q0 4 3 9q12 5 34 22q6 12 25 31q4 -1 12 0q7 2 37 24l6 10q9 -1 25 0q0 -2 6 -6l-3 -44q-5 -16 -12 -43q1 -5 0 -13l-44 -43q-5 -7 -11 -14t-15.5 -7.5t-28.5 -3.5q-8 -9 -25 -22 q-12 0 -40 -3q-6 0 -28 -8q-18 -6 -31 -4l-13 9q-6 2 -29 4q-16 2 -23 9q-1 4 -4 12q-2 4 -19 14.5t-24.5 13.5t-21.5 2t-21 1q-4 6 -13 16q-8 2 -21 9q-6 12 -19 34q-14 13 -37 40q-5 8 -7 20q-4 18 -7 23.5t-8 12.5q1 12 0 34zM106 373q0 -19 30 -19q14 0 46 5.5t44 5.5 q7 0 11 -1q7 -6 16 -13q-3 -2 1 -3h5v6q2 2 0 10q9 0 31 3l109 15q4 3 9 9q0 1 -3 10q19 13 56 12q-3 25 -7 33.5t-18 19.5q-5 1 -13 6q0 8 -3 25q-5 7 -12 18q1 4 0 10q-4 -1 -9 0q-2 4 -7 9q-33 21 -55 25q-8 -1 -22 0q-8 6 -9 6q-2 0 -22 -8.5t-22 -10.5q-3 -11 -15 -24 q-4 -2 -19 3q-20 2 -34 -19q2 -5 6 -12q1 3 3 -16q-2 1 -6 -3q-46 0 -53 -6q1 -5 0 -12l-12 -25q0 -10 -6 -31h-6q-2 -6 -7 -19h-6q-1 -5 -1 -9z" />
<glyph unicode="f" horiz-adv-x="655" d="M17 61q0 4 3 36q21 6 31 5q37 -2 44 -5q1 -1 3.5 -5t4.5 -3l9 11q4 -1 13 0q3 5 6 11q4 1 8 1q6 0 16 -3.5t15 -3.5q5 2 14 6q-5 7 -3 8q6 1 16 3q6 18 0 36q18 15 17 25q-5 8 -11 22q1 10 0 30l-6 11q0 9 7 26.5t7 23.5q0 2 -2 27q-1 20 2 20q-2 9 -3 6q3 37 3 36l-3 3 q-1 5 -5 19q-4 3 -8 8q-1 3 2 22h6q-1 -3 -6 17q1 4 0 8q-6 2 -16 6q-4 4 -11 8q-21 -3 -58 0l-6 8q0 1 -33 -2v-3q-19 -1 -33 8l-11 14v11q-6 5 -12 14v17q15 9 45 22q15 -2 44 0q5 5 14 11q-3 -1 22 -3q20 -2 50 3l5 25q-2 8 -2 27l11 14q1 9 5 31q4 5 9 14q-3 5 -3 19 l5 3q3 4 20 11q3 4 8 8q3 -1 8 0q4 2 8.5 13t12.5 11q5 0 11.5 8t9.5 10v2q7 3 21.5 2t22.5 1q8 6 22 14q7 2 58 5l14 6q4 0 10 -2.5t7 -3.5q13 1 39 -2q9 -8 25 -17q6 1 16 0q5 -9 14 -22q6 -1 17 -6q4 -4 13 -9.5t23 -9.5q-2 -6 -6 -19l42 -36q-1 -3 0 -9h-28q6 -28 5 -33 l-5 -3v-8q-8 -2 -22 -8q-4 -3 -11 -11v-9q-6 -2 -14 -8q0 -4 -3 -9.5t-26.5 -14t-31.5 -6.5l-14 8q-1 -5 0 -14q4 -2 8 -5q5 -9 2 -27q-4 -18 -14 -19q-3 0 -10 -1q-2 -4 -5 -9q-14 -6 -34 -5h-36l-5 -6q-9 -2 -23 0q-21 3 -24 3q-4 -2 -8 -6v-19q-7 1 -20 0l-22 -19 q4 -5 8 -11q-1 -10 -2 -6q2 -2 2 -8l-5 -3q1 -6 0 -19l-6 -3q-1 -6 -5 -22h-3q-2 -1 6 -11q11 -23 11 -31q0 -1 -3.5 -8.5t-2.5 -13.5l15 -15t10 -16q0 -3 -3 -5q-3 -22 -8 -53l-14 -27h-3q-1 -4 0 -11l28 -34q10 5 33 3v-8h6q4 -6 14 -14h2v-3q9 -2 32 3q27 5 29 6 q7 0 16.5 -4t11.5 -5q5 1 14 0q3 -6 11 -16h5l14 -20q1 -7 -4 -14t-10 -13q1 -3 0 -9q-3 -2 -8 -5q-1 -6 -5 -17h-6q-4 -5 -11 -11q-8 0 -22 -3q-4 -4 -9 -8q-4 0 -11.5 5.5t-10.5 5.5q-9 -3 -25 -5l-8 5q-10 2 -30 -1q-24 -4 -28 -4q-9 -1 -25.5 2t-24.5 3q-19 0 -30 -3 q-6 -4 -14 -8q-13 -2 -33 3q-6 4 -14 8q-13 1 -37 -2q-28 -3 -39 -3q-12 0 -21 2q-5 5 -14 11q-8 0 -25 3q-2 4 -5 8q-5 1 -11 3v9q-5 6 -12 19zM322 645q3 -20 8 -58q3 -1 9 0l2 8q5 1 14 0q6 -6 17 -14q6 1 16 0l8 -4t9 -1q3 3 11 8q11 3 15.5 -0.5t10 -6t18.5 -4.5 q4 2 8 7t4 11q0 12 -15 30.5t-16 23.5q-1 4 6 28q-6 0 -17 2q-2 4 -6 9q-26 16 -47 11q-8 -2 -15 -18l-10 -24q-10 0 -30 -2v-6z" />
<glyph unicode="g" horiz-adv-x="727" d="M25 -2q3 24 15 40q0 1 17 12q1 12 14 34q2 1 2 3q0 4 -10 9q-3 5 -2 14q2 10 2 12q-4 13 -6 17l-9 3q-3 10 -2 31q1 20 5 29q2 4 19 21t22 20q2 1 7 1t7 1q5 10 14 23q9 3 20 12l3 23q1 1 9 11q1 11 -8 25.5t-9 21.5q3 9 5 34q0 6 -4.5 24t-3.5 25q1 10 16.5 21.5 t16.5 21.5q-1 7 1 20q7 7 15 18v5q6 1 17 3l17 23q9 -1 26 0q3 5 9 12q4 -1 11 0q4 4 9 8q18 7 49 0q5 -4 11 -8q9 0 26 -3l9 -9q7 0 18.5 6.5t18.5 5.5q5 -1 19 -10.5t27 -6.5q8 6 21 14q10 -5 25 -9v6l35 26q4 1 9 1q10 0 21 -4q7 -3 13 -6q7 2 26 0q8 -5 24 -12 q4 0 13 -2q2 -5 6 -12h6q1 -11 6 -31l6 -3q0 -6 -3 -13l-3 -7q-1 -8 3 -35q-1 0 -15 -3q0 -8 -6 -20q-14 -14 -54 -14q-8 0 -12 3q1 3 0 8q-3 3 -8 9q-3 2 -12 3q-5 -6 -11 -12h-6q-11 -14 -6 -34l9 -9q3 -18 0 -40q-1 -4 -3 -3v-6h-6q4 -4 6 -8q-3 1 -9 -3q-7 -13 -6 -18 q7 -5 3 -5q3 -3 6 -9q-4 0 -11 -3v-9q-5 0 -12 -2v-6q-4 -2 -11 -6l-23 -34q-1 -6 0 -11q2 -6 2 -10q-14 1 -40 -2v-9q-5 -1 -11 -3v-3q0 -3 -4 -5t-5 -4q2 -3 3 -11q0 -2 -15 -20q2 -1 6 -12q8 -1 20 0q2 5 3 9q20 12 41 3q7 -10 23 -23q10 0 28 -3q5 -2 14.5 -16t14.5 -16 q13 1 38 0q3 -1 8 -3v-5q2 -1 7.5 3.5t7.5 4.5q5 1 11.5 -1t8.5 -2q0 -8 -1 -16q-1 -12 -8 -12q1 -4 3 -9q5 -9 46 -20q1 -4 0 -12l-11 -8v-3q-4 1 -9 0q6 -14 9 -32q1 -3 8 -6v6q6 -1 17 0q3 4 6 9q4 -1 12 0q-1 -2 0 -9h-12q-4 -6 -8 -17q2 -13 2 -38q-2 -5 -5 -14l-9 -3 q1 -7 0 -20q-8 -8 -17 -23q1 -4 0 -11q-9 -6 -23 -18q-2 -6 -9 -14q-14 1 -40 -3l-12 -12q-9 1 -29 -2q-3 -4 -8 -9q-8 0 -23 -3l-9 -9q-16 -2 -46 -8q-51 -15 -72 -12q-7 3 -17 6q-3 0 -16 -4.5l-13 -4.5q-47 -8 -75 0q-3 5 -8 12q-9 6 -26 9q-25 -3 -69 2q-1 4 -3 9 q-4 0 -12 3q-2 4 -5 9q-10 -1 -29 2v3q-6 2 -17 9q-1 5 -6 11h-6q1 4 0 9q-4 0 -12 3q1 4 0 9q-14 9 -31 23v8q-5 7 -12 20q-7 27 0 84zM189 208q2 -6 3 -12q7 1 20 -2q6 -4 7 -12.5t5 -10t14 -3.5q0 -2 3 -6q13 31 6 55q6 2 6 3q-24 11 -26 11q-5 0 -12.5 -6t-11.5 -6 t-11 -2q0 -4 -3 -9zM202 394q0 -15 19 -25q-9 -26 -3 -40l29 -29h6q-1 -4 0 -9q4 -1 14 0l3 12q7 0 23 -3q17 -6 23 -14q0 -4 6 -12l3 -6q15 0 43 3q1 6 6 18q2 1 5 2v12h9q1 4 8 10q6 -1 18 1v6l14 12q-9 22 -8 26q5 3 11 8q2 6 0 32q-1 9 -32 75h-5q0 4 -3 11q-4 1 -9 3 q0 1 -3 9q-8 4 -25 1q-19 -2 -24 -1q-1 0 -8.5 7.5t-14.5 6.5q-4 0 -9.5 -7t-7.5 -7q-11 1 -32 0q-2 -1 -12 -11t-11 -12q2 -5 0 -20q-5 -5 -11 -12q-1 -3 6 -23l-26 -14q-2 -5 -2 -10z" />
<glyph unicode="h" horiz-adv-x="779" d="M21 38q-2 8 2.5 24.5t9 18t11.5 3.5q0 -3 3 -11q4 -2 9 -6q-2 0 5 6q-3 8 -2 8q-2 0 -3 9h11q8 7 20 14q15 -1 41 3q2 4 5 9q4 0 9 3l3 6v14q0 1 8 14q-3 7 -5 29l2 10q1 9 1 13q-4 6 -9 15q1 7 0 20q-4 3 -9 8q-1 6 -1 12q0 12 7.5 31t8.5 26q0 8 -4.5 18t-4.5 14 t1.5 15.5t1.5 16.5l-6 3q0 4 3 7.5l3 3.5q2 9 0 23q-3 16 -3 20q0 2 4 18q3 13 2 23q-6 10 -12 25q-1 13 7.5 25t8.5 20q0 5 -1 10q-1 2 -15 14t-11 24q5 3 11 8q23 30 18 49q-2 6 -14.5 12.5t-15 10.5t-0.5 7q2 4 1 8q-3 1 -6 5q-19 2 -57 9q-3 4 -6 9q-4 1 -26 2q1 3 8 26 q-4 4 -14 29q2 5 6 12q4 3 30.5 8.5t32.5 5.5q2 0 10.5 -3t12.5 -3q19 6 43 12l14.5 -5.5t19.5 -11.5q12 -15 13.5 -15t7.5 -3q3 -4 9 -11q5 -3 17 -9v-17h9l2 -6q5 -2 38 -20v-9q-4 -1 -12 -5q3 -4 3 -9q-9 -1 -23 -6q-2 -2 -11 -26l-6 -6v-14q39 6 46 0q1 -6 3 -14 q4 -2 9 -6q-1 -7 -4 -13l-11 -22h-9q1 -4 0 -8q5 -2 11 -6.5t13 -8.5q-1 -6 0 -14v-6q1 0 2 12h15q-1 8 0 8q13 8 26 12q4 -1 11 0q4 3 6 15.5t7.5 16t24.5 11.5q5 1 17.5 -2.5t13.5 -3.5q24 2 66 -3l6 -8h18q35 -24 36.5 -25.5t11.5 -20.5v-12q18 -32 61 -37v-9v-11 q-6 -6 -12 -15v-52q11 -1 26 -5q1 -4 3 -9l-2.5 -4.5l-5.5 -9.5v-9l-9 -3q-1 -6 3 -11t3 -12h-6q-6 -21 -6 -23q5 -4 12 -11q2 -43 0 -46q-4 -2 -9 -6q8 -2 26 -6v-14q4 -4 11 -9q-1 -7 -2 -20l-9 -3v-23h-12v-14q1 0 6 1.5t9 0.5q-3 -3 -6 -8h6q1 -5 3 -12h5q2 0 15 -17v6 q9 10 29 23q6 -1 17 0v-12q-5 0 -12 -3q-1 -3 -5 -8v-15q9 -1 19 -9q-1 -4 1 -11q5 -3 11 -8q3 -5 6 -29q3 1 12 3h8q1 -5 3 -12q-1 4 -3 -3l6 -5q5 -19 -12 -26q-9 0 -26 -3q-1 -4 -5 -9q-9 1 -23 0q-4 -1 -11.5 -9.5t-20.5 -10.5q-48 -6 -63 -3q-5 4 -12 9q-21 4 -37 0 l-6 -6q-3 0 -8.5 3l-5.5 3q-22 -1 -64 3q-2 0 -25 9q-15 5 -29 5l-3 6q-24 3 -38 0q-4 -4 -11 -9q-18 1 -52 0q-85 -6 -89 -6q-3 1 -12.5 5t-13.5 4l-17 -6q-77 -2 -113 3l-5 6q-9 2 -19 4q-4 1 -10 10zM260 171q6 -2 11 2q2 -1 9 -11l9 -6q-6 -4 -3 -8q1 -3 3 -5.5t8 -3.5 q4 1 9 3v8q2 1 3.5 -2t2.5 -3q7 1 20 0q2 -4 6 -9q4 2 11 6v8h6q3 7 9 15q5 2 60 -9q1 9 6 29q-3 1 -6 6q2 1 9 11q6 1 17 0q1 0 4 -4.5t7 -3.5l12 5q-7 46 -3 58h3q-1 0 20 20q1 5 0 12q-4 0 -11.5 3.5t-11.5 42.5q-18 2 -20 3t-14 11v9q21 5 46 3q-4 12 -12 40 q36 22 36 35q0 4 -1 8q-3 0 -6 6q-6 0 -17 3q-4 5 -12 11q-7 -2 -20 -3v3q-4 3 -9.5 6.5t-13.5 2.5q-25 -3 -26 -38l-3 -17h9q11 -4 11 -17q0 -10 -8 -14t-25 -3q-21 1 -27 0q-1 3 -3 14v9h-17q-7 -31 -3 -35q4 0 8 -3v-11q-19 -25 -34 -29q-3 -1 -14 1q-6 1 -12 -7 q-13 -17 -17 -55l5 -2q-3 -3 -2 -9l8 -3q1 -4 0 -9q-6 -2 -17 -8v-12q-2 -10 0 -14q4 -3 8.5 -7t2.5 -13q0 -2 -11 -12q1 -3 0 -8zM427 441q0 5 3 15l6 2l20 -4q-1 -1 -3 -1l-3 -9l-6 3l-3 -6h-14zM605 271l6 -3q7 11 -6 9v-6z" />
<glyph unicode="i" horiz-adv-x="614" d="M31 35q1 5 3 20q-2 4 -3 11q3 23 25 30q12 4 38 1q28 -2 37 -1q5 5 14 11q11 1 36 3l2 8q7 -1 8 -1q9 -1 13 -2h2l16 6q11 10 14 70q1 41 3 82q3 11 8 31q-2 15 -3 49q4 16 3 20l-5 11q2 18 2 52q-3 6 -8 17h-5l-9 19q-9 6 -23 6q-9 0 -29 -3t-28 -3q-11 1 -66 11 q-7 0 -17 3q-1 7 -6 20q-4 6 -9.5 13.5t-3.5 16.5q0 5 16 17v5q53 16 67 14q6 -5 19 -11q15 1 39 0q1 0 10 -5q6 -4 15 -3q18 1 30 11q-1 4 8 11q5 1 11 1q20 0 51 -9q28 -8 35 -14q1 -5 3 -11q4 -1 11 -3q1 -5 3 -11h5l9 -17h2q0 1 -5 -14q2 -7 3 -25l-9 -27q8 -5 23 -17 q-1 0 0 -19l-9 -3q2 -12 0 -33q-1 -4 -5 -4l-6 1v-11q1 0 14 3q1 -4 8 -11q0 -2 -5 -25q7 -4 3 -17h-6q-3 -5 -8 -11q1 -8 8 -28q-6 -4 -6 -5q4 -2 9 -6q-3 -15 -11 -50q10 -8 22 -27q0 -4 -3 -7.5l-3 -3.5q-4 -18 9 -33q1 -2 13 -6q7 -2 20 -3l3 -8q1 0 2 8h28q2 -5 3 -5 q5 1 14 2q-3 -5 -6 -13q0 -4 3 -17q5 4 16 14l-2 11q2 1 5 5q8 -1 25 -8q2 -4 6 -8q10 0 30 -6q10 -5 19 -29t6 -40l-19 -25q-18 -19 -36 -22q-18 2 -56 3q-7 -1 -30 -5t-33 -3q-5 0 -21.5 3t-25.5 2q-14 -3 -17 -3q-8 4 -19 9q-27 4 -72 5q-103 3 -100 3l-3 5 q-17 -2 -52 -2q-10 1 -45 14q-4 -1 -13 2v9q-4 2 -9 5zM192 692q0 33 3 41q1 4 9 7t10 6q3 10 8 25q13 0 36 3l3 6q16 10 30 11q6 0 21 -8t18 -12q2 -8 8 -19q7 -2 20 -8q2 -5 8 -14q8 -5 20 -17q4 -10 1 -31l-4 -32h-20q-1 -1 -7 -8.5t-6 -8.5q3 -6 2 -14q1 0 6 -3 q-2 -3 -3 -11q-26 -2 -22 -3q-1 1 -20 7q-15 4 -24 2v-6h-11q0 -1 -3 -5v-3q-6 -1 -10 1.5t-7 3.5q-13 0 -36 6q-2 6 -8 19q-8 8 -19 25q-3 8 -3 40zM463 156q0 2 3 4t0 2h3q19 3 19 -6q0 -3 -8 -2q-17 -3 -17 2z" />
<glyph unicode="j" horiz-adv-x="454" d="M21 7l19 20q3 4 8 19q4 10 14 17q27 17 63 17q17 0 29 -6q2 -5 8 -11q9 -2 25 -8q1 -4 5 -12h6l17 -19q-7 -27 0 -55q13 0 35 -3q1 -2 6 -6q-5 -8 -14 -16q-6 -2 -15.5 2t-15.5 4q-4 0 -8 -1l-2 -8h-9q-1 -4 -5 -11h-6q-8 -18 -2 -28q1 0 8 -5q0 -2 3 -9q14 6 16 6l6 -6 q17 -4 33 0q3 4 8 9q4 -1 9 0q-1 3 0 8l5 6q-1 11 0 33h6q3 2 0 11q4 -1 11 0v5q3 2 11 6v8l-9 3q0 6 3 19l6 3q-1 7 0 20q5 5 11 13q0 7 3 20l5 3q-3 2 -3 8l6 3q-4 12 -6 41l9 14v25q0 4 -4.5 17.5t-4.5 18.5l6 5q2 7 -1 17.5t-2 16.5l6 8q-2 15 -3 39l4 17q3 13 1 21 l-8 14q1 12 0 36q-4 6 -8 14q-1 9 4 24.5t4 22.5q-1 13 -14 30q-3 2 -8 6q1 4 0 8q-6 4 -22 3q-19 -1 -25 0q-5 5 -14 11q-9 2 -29 1q-20 -2 -29 -1q-6 3 -14 6q-1 0 -11 -3t-11 -3q-28 -1 -42 11q-3 11 -5 20q-4 17 3 30q2 4 13.5 15.5t13.5 12.5q17 5 36 -3l3 -6 q5 0 13 4.5t9 4.5q12 -2 36 -3q19 3 47 6q9 0 26 -3q21 -3 24 -3q9 1 25 0l8 -8q11 0 31 -3q3 -2 25 -22q1 -3 1 -7.5t9.5 -10t11.5 -10.5q5 -15 -3 -17l3 -69h-3q-2 -8 -3 -8v-11l6 -6v-8v-19q0 -29 -3 -39q-2 -3 -8 -8q-2 -10 3.5 -17.5t4.5 -16.5q-5 -5 -11 -22 q-1 -19 3 -33l9 -10.5t7 -22.5l-5 -6l-4 -20q-3 -16 -4 -16l2 -11q7 -20 0 -30l-5 -3q-2 -7 0 -50q0 -3 4 -12.5t4 -12.5l-8 -2v-14q0 -6 10 -16.5t9 -19.5l-5 -3v-11q-4 -5 -9 -14q-5 -21 0 -72q-15 -4 -18 -15t-7 -24q0 -4 -2 -11q-4 1 -9 0l-11 -8q-11 0 -30 -3 q-3 -5 -8 -11q-4 1 -9 0q0 -3 -3 -8q-5 0 -16 -3q-2 -3 -6 -8q-6 0 -19 -3l-8 -8q-12 -5 -41 -9.5t-42 -1.5q-5 4 -11 8q-7 -1 -20 0q-7 6 -19 14q-5 -1 -14 0q-2 3 -6 8q-4 0 -11 3v8q-14 7 -36 25q-2 10 -11 31q-7 7 -19 22q-3 10 -11 33q-5 6 -11 16q-10 45 0 72z M239 697q11 8 23 22q-2 8 0 22q3 9 26.5 17t39.5 8q14 -1 43 -12t32 -19q-2 -9 0 -27q6 -5 14 -17q0 -7 -4 -12.5t-8 -9.5q3 -10 3 -25h-3q-1 -1 -8 -14q-6 0 -19 -3q-4 -5 -11 -11q-4 1 -11 0q-2 -4 -6 -8h-19q-26 -1 -45 11q-1 4 -4 7t-6.5 3t-5.5 1q-1 5 -6 11h-5v20 q-7 6 -17 19q-1 3 -1 10q0 3 -2 7z" />
<glyph unicode="k" horiz-adv-x="716" d="M13 737q-7 14 0 14q4 25 8.5 30.5t26.5 12.5q6 3 14 6q28 2 87 -12q2 -11 3 -13q3 -5 11 -7q15 3 43 -3q10 -5 17 -26q10 -27 13 -30t8 -7q-1 -4 0 -11q4 -1 14 -6q-8 -3 -11 -3l-3 -9q1 0 3 -5q5 0 25 -6q1 -15 0 -15q-7 -1 -2 -34l-29 -17q1 -7 0 -20q0 -1 -3 -4.5 t-3 -4.5l6 -6l6 -20h11q1 -3 6 -9q-7 -19 -6 -26q5 -8 12 -23q1 -8 5 -60q1 1 8 1q3 0 4 2q-1 4 0 11q4 2 11 6q4 9 18 20q-1 0 20 -3q19 -2 40 12q2 6 0 20q-4 9 -12 9q-4 0 -12 -3t-10 -3t-6.5 1.5t-8.5 1.5v8l-6 6q0 4 6.5 26t8.5 23h8q10 4 26 9q8 -2 18 -3l2 6 q14 1 44 5q11 6 28 12q10 -1 29 0q1 0 10.5 4.5t12.5 4.5q2 -1 11 -5t12 -4q8 4 17 9q24 4 44 0q4 -5 11 -9q6 2 15 3q13 4 17 3q12 -3 28 -26.5t16 -43.5q0 -4 -1 -8t-10 -13t-13 -10q-4 1 -12 0q-5 -5 -17 -12q-14 2 -40 0v-5q-4 0 -12 -3q-2 -5 -8 -12q-21 -14 -78 -14 q-9 -28 -11 -32q-5 0 -12 -3q-1 -2 -3 -8q-6 1 -17 0q-8 -4 -20.5 -19t-19.5 -19h-3q-1 -5 -3 -14q0 -5 3 -12q5 -1 14 -2q2 -24 9 -55q5 -1 11 -3q0 -5 3 -11q1 -1 12 -5q6 -2 6 -7.5t2 -13.5h9q2 -5 9 -12q8 1 23 -3q4 -3 6 -15.5t5 -15.5l20 -6q6 -9 20 -23q5 -1 12 -3 q4 -4 5 -11.5t4 -11.5q4 -7 15 -11q16 -5 19 -6q3 -5 9.5 -10.5t39.5 -11.5q26 -5 34 -15t8 -20q0 -7 -19 -41q-1 -8 -9 -17h-28l-6 -6q-31 -8 -66 -6q-58 4 -78 3q-32 -2 -26 -3q-12 6 -34 14q-14 -3 -47 -2l-14 8q0 30 3 35q4 2 9 5q-1 3 0 9q3 4 8 12q20 -2 49 2 q-3 11 -11 32q-4 3 -9 9q0 8 -3 26q-6 7 -14 20q-1 11 -6 31q-9 7 -23 21v11l-6 3q-3 9 -14 20q-5 -1 -12 0q-2 3 -8 9q-1 -5 -3 -12q-6 -5 -17 -7q-15 -2 -21 -4q-1 -4 -5 -9q-9 -3 -25.5 -11t-35.5 -23q-3 -11 -1 -25l4 -21q5 0 12 -3q-1 -4 0 -9q-5 -12 -9 -14q3 -8 3 -9 l-9 -9q0 2 3 -28q10 -1 29 2q0 6 17 12q3 0 20.5 -6.5t19.5 -7.5q1 -4 3 -9q4 0 12 -3q5 -8 14 -17h6q-1 -5 0 -15q-6 1 -17 0q-6 -5 -15 -11q-6 -1 -20 -3l-6 -6q-24 -7 -60 3l-9 6q-9 1 -23 -3q-8 -3 -17 -6q-12 -3 -46 -3q-17 4 -23 3q-3 0 -21.5 -2.5t-28.5 -2.5 q-28 0 -36 14v11q-4 6 -8 11q-6 11 -4 12q4 8 15 21q5 3 30.5 10t32.5 7l20 -6v-6h26q-9 16 -9 18v2q10 5 11 57q1 60 4 66.5t5 12.5q-2 2 -9 25t-8 29q-1 9 3 19q3 6 6 13q-1 6 0 17q-3 9 -3 15q4 14 3 20q-4 5 -9 14q-1 8 2 19q4 15 4 16q1 12 -2.5 27.5t-3.5 21.5 q0 17 8.5 53.5t8.5 56.5q0 12 -3 22q-3 6 -8 14v21q-4 5 -9 14q1 -8 3 32q-21 3 -37 3l-3 8q-13 -1 -38 0q-27 3 -49 35z" />
<glyph unicode="l" horiz-adv-x="650" d="M20 81q13 31 15.5 34t59.5 12.5t71 7.5l6 -6q4 2 11 3q2 0 18 -5q13 -3 22 -1q5 2 13.5 16.5t14.5 17.5h2v20q-1 1 -5 2v31q-1 3 -5 19q-4 12 -4 21l6 8q-1 9 0 28q4 8 8 20q-2 8 0 28l6 3q2 9 2 21q0 14 -3.5 39.5t-4.5 34.5q-1 47 6 73q6 12 3 11l-9 31q-1 12 5 22.5 t7 11.5v34q-2 0 -6 2q1 13 0 37q-5 5 -11 14v5q-1 2 -9 6l-8 6l-9.5 7.5t-24.5 14.5q-5 1 -17 -5t-14 -6q-16 -4 -28 -3l-8 6q-15 -3 -39 -6q-18 0 -38 11t-27 23q0 4 -3 14q-1 3 -3 8q2 16 20 26v5q4 1 14 3q29 11 45 8l6 -5q14 -4 39 0q4 2 10 4.5t12 0.5q2 0 9.5 -7 t13.5 -7l3 6h8q4 7 17 14q5 1 26.5 -5t26 -10l11.5 -10q11 -2 18 4.5t8 6.5q7 2 16 -1q6 -2 12 -5q-1 -5 0 -14q5 -4 11 -11q6 -11 0 -39q7 -3 23 -9q-1 -1 0 -8q-6 0 -17 -3l-14 -17q12 -26 14 -42q-2 -4 -3 -14l3 -5q-6 -10 -12 -23q0 -1 3.5 -8.5t3.5 -10.5t-1 -3 q-7 -5 -3 -20q8 -6 17 -14q1 -5 6 -17q-5 -2 -14 -6q9 -37 5 -67q-4 -7 -8 -17q1 -12 0 -36l-3 -3.5t-3 -7.5q5 -4 11 -12v-11l6 -3v-11q7 -11 17 -34q-1 -3 -3 -8q-5 -1 -14 -6q-1 -19 3 -50q5 -2 14 -6q5 -8 17 -22q5 -1 11 -6v-20v-5q7 -12 45 -45q0 -4 3 -8q8 -4 18 -4 q8 0 24 2.5t25 2.5q8 0 14 -1q9 -6 20 -12q10 -1 25 -2q4 -9 8 -23v-14q6 -3 12 -8q1 -4 0 -22q-2 -18 -3 -21q-8 -3 -23 -11q-2 -4 -8 -11q-23 -14 -79 -14q-6 0 -24 3t-26 3q-3 -1 -17 -4t-22 -2l-9 6q-10 -1 -31 0q-9 2 -19 5q-17 -4 -59 -5l-12 5q-26 5 -58 -3 q-78 -16 -130 -8l-30 14q-11 3 -26 11q-13 19 -3 56zM601 59q1 7 6 20q4 -1 9 0q2 4 8 11q3 -14 6 -31q-2 -1 -6 -8q-17 2 -14 2q-4 3 -9 6z" />
<glyph unicode="m" horiz-adv-x="736" d="M22 88q0 24 18 24q5 0 10.5 -3t25.5 -39h11q5 8 8 14v3q5 2 12 6q-23 54 -17 132q3 13 5 30q1 10 -3.5 30t-4.5 24q4 28 6 84q-4 11 -9 28q-1 13 2 29t1 27q-2 12 -14 21.5t-25 6.5l-11 -5q-4 3 -12 8q-1 7 0 20q1 1 6.5 9t5.5 13l-9 9q-1 5 -3 14q8 2 23 0q2 -5 8 -12 q-2 1 23 3q15 -2 39 -3q10 6 11 6q6 -1 14 -9t20 -8q14 6 39 14h11q5 5 14 11h14q5 6 23 12q9 0 27 -7t21 -7h11q0 -4 3 -9q13 -13 31 -14q1 0 11 1.5t14 1.5l3 6q5 -2 19 -3v3q11 1 28 8q2 10 17 22q10 -2 31 -2q4 3 8 5q7 6 12 6q8 0 27 -9.5t26 -15.5q0 -4 3 -9 q10 -1 28 -11v-8l11 -14q9 -4 20 -15q-1 -6 0 -19q5 -6 11 -14q-2 -13 -3 -31q8 -11 17 -25q1 -5 -2 -10.5t-4 -6.5h-8q0 -5 -3 -11q9 -4 23 -12q0 -3 2 -8q-1 -2 -14 -20q3 -5 3 -17q-2 -5 -9 -9t-7 -9q0 -6 8 -21q-1 0 -9 -8q6 -11 17 -26q4 1 11 0q6 -5 15 -14 q-2 -1 -9 -11q-13 4 -17 3q-2 -2 -8 -6q0 -4 0.5 -9.5t4.5 -4.5q-2 -11 -2 -8q-1 -8 2 -23q5 -2 9 -5q2 -11 -1.5 -17l-7 -11.5l-6.5 -10.5q1 -1 2 -1q5 1 10 1l-3 1q16 2 16 -3q-1 -1 -5 -1q6 -1 20 -3q7 -21 0 -28q2 -3 3 -9q43 -19 43 -46q0 -9 -4 -18q-1 -4 -8 -7 q-10 -3 -11 -4q-8 -8 -23 -17q-10 -3 -32 -3t-32 -3q-4 -4 -9 -8q-14 -4 -31 0q-1 3 -3 8q-14 0 -47 3l-12 6q-8 0 -20 -4t-22 -2q-5 5 -14 11q-3 1 -16 -3q-12 2 -34 3q-1 0 -16 -3t-23 -2q-3 0 -16.5 4.5t-23.5 3.5q-1 0 -10.5 -3t-14.5 -3q-6 5 -17 12q-6 0 -17 2 q-5 6 -14 15h-8q-4 -6 -11 -15q-18 -9 -48 -8q-11 0 -17.5 4t-7.5 4q-15 -1 -51 0q-7 5 -17 9q-8 -3 -25 -3q-6 2 -6.5 7.5t-1.5 6.5h-9q-1 0 -8.5 8t-8.5 9q-3 7 -3 15zM168 284q1 -2 6 -3q2 0 6 8q4 2 28 -8q0 -9 -6 -31l-5 -3q2 -6 2 -22q0 -1 -5 -11.5t-3 -19.5 q5 -7 11 -14q-1 -7 0 -20q5 -6 11 -14q1 -12 3 -34q1 1 14 3q-1 2 -3 9q15 2 23 -20l5 -3v-8q6 -1 20 -3q4 8 0 8q9 5 23 17q2 8 8 23h3q0 2 -3 8l6 3q-4 19 -3 62l3 4.5t2 9.5q-7 7 -16 22q-3 10 1 25t4 20q0 8 -5 22l-6 3q-2 13 4 29q7 20 7 25q1 10 -4 29t-4 27q3 8 8 25 h6q0 6 3 17q-8 7 -23 25v11q-29 3 -28 3q-6 -1 -14 -3q-1 -4 -3 -8q-8 -6 -25 -20l-3 -3q1 -4 0 -11q-7 -5 -5 -5q3 -1 3 -5q-1 -5 -1 -7q1 -1 17 -11q-1 -6 0 -17q-20 -9 -22 -11.5t-3 -24.5l-6 -11q2 -8 0 -23h-5q-8 -11 -20 -25l-3 -3q-1 -3 6 -28q-2 0 -9 -8zM216 104h6 q-1 2 -6 5v-5zM250 124q-2 6 3 16q-4 -1 -1 -6q3 -6 3 -7q0 -2 -5 -3zM427 224q0 -3 8 -8q13 -7 23 -3l8 14q13 -1 36 0q3 3 9 6q0 16 3 36q-18 6 -37 15q0 9 6 22q6 0 17 6q-1 4 0 11q2 6 5 11q3 10 -3 14q-1 1 -6.5 1t-7.5 2q-4 7 -14 20q13 9 28 22q4 11 9 28q-6 2 -17 8 q-1 5 -3 9q-5 0 -17 3l-14 11q-1 0 -4.5 -4t-9.5 -16l17 -17q-1 -8 -5 -19h-9q0 -4 -3 -9q-4 -1 -14 -5q3 -1 6 -6q-1 -10 0 -28q2 -1 5.5 -3.5t8.5 -7.5q14 2 20 0v-6q2 -3 5 -5q0 -5 -3 -12h-14v-2q2 -3 3 -6q-6 -4 -14 -17q-1 -10 6.5 -23.5t7.5 -17.5q0 -10 -18 -17z M458 182q2 -1 5 -2v-9q6 0 17 -3q3 -2 -3 -5q5 -1 14 -3l9 3v17l-40 14z" />
<glyph unicode="n" horiz-adv-x="727" d="M24 66q5 44 53 44h17q11 -1 15 -1q22 0 28 10v8q3 11 2 16l-5 10q1 12 0 34q-4 7 -8 16q-2 23 3 39q7 6 15 16v19q4 5 8 13q1 5 -3 17.5t-5 13.5q2 19 3 50l-10 21v8q-1 10 -6 24q-3 0 -8 2q1 4 0 8h-8q-3 5 -10 11q-6 -1 -18 2q-2 4 -6 8q-1 1 -5 1t-5 2.5l-3 7.5 q-2 1 -5.5 1t-4.5 1q2 20 2 19q0 2 -5.5 13.5t-5.5 20.5q0 4 1 8q2 1 5 8q1 0 8 1.5t10 0.5q2 0 9 -2.5t10 -2.5q10 4 26 8q27 4 50 -3q30 -8 37 -21q0 -4 2 -10q6 -1 16 -3l3 -5q23 -9 34 -8q12 1 24 19t20 19q4 0 11 1q7 9 21 21q15 7 55 11q16 2 45.5 -1.5t38.5 -9.5 q7 -9 27 -21q14 1 42 0q12 -4 34 -10q2 -21 0 -25q-2 -3 -21 -9l-3 10q-6 -4 -5 -5q0 -4 3 -13l10 -8q-1 -9 0 -26l16 -21h5q-2 -9 -5 -19q-4 0 -8 -2q-3 -9 -2 -19q3 -14 2 -21l-5 -8q-1 -4 0 -21q2 -20 2 -29q8 -3 24 -7q-8 -18 -11 -32q0 -3 3 -5q1 -3 -3 -8v-5 q5 -5 11 -13q-3 -9 -5 -24q3 -8 8 -16q3 0 7 -3q0 1 -2 -13q2 0 5 -5q5 1 13 -3l8 -28q1 0 3 5h21q0 -8 5 -24q3 -5 12 -9t12 -7q-1 -3 0 -7h5q7 -3 13.5 -16t6.5 -24q0 -6 -3 -9t-9 -7q-4 -8 -13 -21q-2 -1 -27 -10.5t-29 -10.5q-5 -1 -16 1t-12 2q-11 0 -48 -3 q-33 -3 -50 -2q-32 2 -29 2q-1 0 -9.5 -4t-13.5 -4q-2 4 -5.5 7t-20.5 9q-9 -1 -29 3q-13 7 -13 23q0 9 5 29q-9 4 -26 11q-6 -4 -14 -11q0 -8 -2 -21q-4 -8 -21 -18q-25 -15 -37 -16q-4 2 -16 3q-2 0 -5.5 -1.5t-2.5 -1.5q-5 0 -17 1.5t-17 1.5q-5 -4 -13 -8q-23 -6 -66 0 q-11 1 -18 0q-65 -8 -81 13q-1 5 -6 16h-5q-13 5 -10 31zM231 303q4 -15 5 -40v-5q2 -11 5 -11q7 0 8 -2.5l3 -7.5q0 -2 -3 -8q-5 -2 -13 -8q-3 -9 -2 -26q0 -1 8 -13q1 -10 -8 -29q1 -1 2 -8q8 -1 21 -5q4 -6 16 -16v-2q7 1 21 2q6 -2 16 -5q-1 -8 0 -8q3 1 8 0 q11 -4 31 -13l3 -5q6 -1 37 10l2 5q19 2 48 11v5l5 3q3 5 3 10q-1 8 -1 11q3 -2 14 -5q5 27 5 23q0 4 -7 17.5t-6 19.5q3 1 8 3v8q1 0 5 2q1 4 -2 19.5t-6 20.5l-5 2q-2 7 2.5 25t7.5 22l5 3q1 3 -3 10.5t-4 10.5v47q-6 3 -19 8q14 19 14 38q0 8 -3.5 15t-20.5 10l-27 6 q0 -3 -2.5 -8t-7.5 -19q-9 1 -29 6q-1 -4 -5 -11q-5 -3 -13 -10q-5 -7 0 -11h-6q-3 -3 -18 -5q1 3 -3 8q1 -4 0 -11q-3 -3 -7 -8v-10q-9 -6 -19 -16v-5l-29 -13q-12 -15 -34 -37z" />
<glyph unicode="o" horiz-adv-x="590" d="M28 357q1 19 14 39l6 3q2 7 0 20v8q3 13 11 37q11 20 31 30v3h6q4 14 17 40q4 1 14 5q4 9 16 23q6 0 14 2q7 7 20 17q21 9 51 11q1 1 56 -2q10 1 28 2q11 -5 28 -11q7 5 25 9q11 -1 22 -13t12 -13q6 -3 15 -3q13 -1 19 -2q3 -4 8 -9q3 1 8 0q5 -3 8.5 -13.5t7 -15 t18.5 -9t20 -10t9.5 -21t7.5 -20.5q8 -7 19 -20q-2 -4 -3 -9q14 -13 17 -25v-17h6q-2 -2 -3 -5q1 -1 6 -9q7 -49 0 -67q-5 -4 -9 -8q-1 -9 2.5 -22t3.5 -15q-3 -11 -6 -28q5 -7 3 -11q-8 -2 -17 -14q-1 -10 7 -27t7 -27q0 -7 -8 -16q-10 -13 -11 -14q-3 -12 -14 -34 q-8 -4 -23 -14q-1 -1 -3 -9h-5q-1 -3 -3 -11q-4 -1 -11 -5q-1 -4 -3 -9q-7 -1 -20 -5q-2 -4 -5 -9q-11 1 -31 0q-8 -4 -26 -11l-2 -6q-9 -1 -20 -3l-14 -8h-14q-84 -12 -93 -11q-16 7 -45 17q-7 -1 -19 0q-4 5 -11 11q-15 2 -40 14q-5 8 -14 20q-12 4 -31 16q-2 10 -8 28 q-14 23 -31 71q3 10 6 33q-5 10 -12 26q2 11 3 33q-3 10 -5 20q1 5 2 8q-1 10 -2 14q3 18 2 20q0 4 -7 13t-7 18zM124 312q4 -4 14 -11q-16 -47 -11 -62q1 -5 12 -10t13 -7q8 -18 20 -39q6 -4 23 -2.5t24 -0.5q14 -11 20 -17q-1 -4 0 -8q5 -1 17 -3q20 -9 56 -20q6 2 20 3 l22 -11q5 8 17 22q12 5 28 14v9q5 1 5 7q0 2 -2 12q-2 9 0 15q9 5 19 16v28q4 1 9 6q0 2 -3 6q-4 -1 -11 0q-8 2 -10.5 10.5t-3.5 17.5q1 0 2 5q6 0 20 3q1 15 -3 42q-9 7 -19 14q-3 9 2.5 19t5.5 12t-4.5 19.5t-6.5 19.5q-6 2 -14 6q-2 7 -9 17q-9 1 -30 8q-1 4 -3 9 q-6 3 -17 11q-2 -10 -9 -34q-2 -1 -11 -3q-8 1 -28.5 6t-33.5 5q-8 0 -16 -2q-10 -7 -28 -17q-5 1 -12 0v-6q-7 -9 -25 -25q-7 -1 -14 -3q-3 -4 -1 -14q1 -10 1 -11q-5 -2 -9.5 -7t-4.5 -20v-18q-4 -3 -11 -11z" />
<glyph unicode="p" horiz-adv-x="657" d="M26 -148q0 22 15.5 39t36.5 17q6 -3 14 -5q6 7 17 16q12 3 39 9q-1 25 0 28h6q2 1 8 11q-2 8 -3 28q1 9 6 20l5 3q3 11 -0.5 48.5t-7.5 38.5v8l8 8q1 12 3 34q-1 -5 -3 6q3 5 9 17q-4 0 -9 33q1 -5 3 9l-5 8q-1 1 -6 9q6 19 11 53l-8 53q1 12 0 37l-6 11q1 -5 3 20 q1 11 -1 30t-2 29q-17 8 -25 8l-10 -2q-8 -2 -13 -1l-5 6q-31 9 -38 17.5t-4 41.5q17 0 24.5 10.5t11.5 11.5q21 6 76 0q14 -1 51 -21q32 -17 50 -15q27 3 39 14q2 9 12 22q8 1 25 6q5 6 19 14q8 1 27 -4q16 -4 21 -7q2 -6 6 -12q4 1 11 0q2 -5 8 -11q7 -2 22 1.5t23 1.5 q6 -5 14 -11q6 0 17 -3q2 -4 6 -9q3 1 8 0q8 -5 14 -19q8 -18 12 -23q13 -6 29 -26q-1 -5 1 -16q7 -6 17 -19q1 -11 6 -37l17 -20q0 -3 -3 -11q-5 -3 -11 -8q-4 -14 11 -51q5 -12 3 -14q-3 -2 -10 -33t-7 -37q0 -1 3.5 -9t1.5 -13q0 -4 -14 -14q-4 -10 -5.5 -33t-5.5 -32h-3 v-6q-8 -6 -19 -19q-2 -3 -7 -22q-3 -14 -10 -18v-2q-6 -5 -18 -7q-15 -2 -19.5 -6t-10.5 -13q-1 0 -19 -8q-10 0 -29 -3q-27 -7 -73 -17q3 1 -44 6q-16 -4 -23 0q-6 3 -14 36q-9 -2 -8 -2q1 -16 2 -37l31 -8v-17q-12 2 -42 6v-9q1 -4 6 -11l22 -11v8q6 0 20 -3q1 1 6 -5 q-18 -10 -18 -16q0 -4 6 -7t21 0t24 0l26 -17q0 -9 5 -25q8 -6 17 -17l6 -36q-5 -1 -14 -6q-31 -22 -68 -22q-7 0 -28 -3q-16 -1 -28 0q-59 7 -67 5l-31 -8q-8 0 -18 2q-14 3 -16 4q-21 -3 -64 -3q-10 5 -26 11q-7 0 -22 3l-17 22q-4 10 -4 20zM257 293q6 -4 12 -9 q-1 -7 0 -19q0 -1 10.5 -16.5t10.5 -22.5q0 -5 -5 -6q8 -8 17 -23q1 -7 -5 -13l-6 -6q0 -5 -3 -17q1 -3 3 -6q8 0 23 -8q0 -5 5 -12q6 0 17 -2q2 -4 6 -9q3 0 11 -3q1 -3 8 -8q16 -5 37 3l5 5h42q5 11 17 26q7 0 23 5v3q7 4 15 18t16 19v5h2v23l6 5q-2 6 -3 23l9 31 q-13 10 -20 19q1 2 8 6q0 4 -1.5 11t-0.5 9q0 2 5 14t3 19l-8 3q-2 6 -6 14h-3q1 12 0 28q-4 4 -8 11v12q-5 1 -11 5q-1 6 -6 17h-6q0 4 -3 11h-8l-15 15q-12 11 -27 8l-28 -20q-6 -1 -14 3.5t-9 5.5q-4 -1 -14 0q-1 -4 -5 -9q-4 1 -9 0q-2 -7 -8 -20q-5 -1 -11 -5 q-1 -5 -3 -14q-6 -8 -14 -20q0 -5 -3 -14q-11 -5 -25 -20v-19l-6 -3q1 -4 0 -11l-5 -3v-11q-1 -1 -7.5 -9.5t-4.5 -18.5z" />
<glyph unicode="q" horiz-adv-x="691" d="M19 310l6 8q-1 14 3 39l6 3q-3 15 -3 47h6q0 7 3 21q5 4 12 11q-1 5 0 12l5 3q0 22 9 62h3q6 8 18 21q9 2 24 9q7 11 31 25q12 -1 36 1q9 6 27 12q15 -3 47 -3q6 4 15 9q11 1 27 -8q19 -12 23 -13q5 1 15 0q2 -4 6 -9q6 0 18 -2q6 -6 17 -12q7 -1 11.5 5t6.5 7q9 -1 27 2 q4 6 11 12q18 8 39 -3q7 -3 16 -17.5t10 -23.5q-1 -14 0 -41q6 -7 12 -18q2 -10 0 -26q-3 -16 -3 -18q0 -1 9 -15q4 -20 0 -38q-4 -3 -9 -6q-5 -14 0 -36q0 -1 9 -12q0 -5 -6 -18q-3 -6 -6 -11q6 3 6 -14v-22q5 -1 12 -2l6 -6q4 -19 -6 -27l-3 -3q1 -7 2.5 -11.5t3 -8 t3.5 -6.5q3 -15 0 -27q-4 -2 -9 -6v-21q-3 -6 -9 -20q7 -2 24 -6q-1 -10 0 -9q4 -2 7.5 1t7.5 2q-2 -3 2 -6l-2 -9q-8 0 -15 1q-2 0 -12 8q-4 -3 -3 -16t6 -14v-5q0 -6 -4 -8.5t-5 -3.5h-3q0 -2 6 -30h3q-5 -13 -6 -41q2 -9 16 -17.5t17 -12.5q2 -11 11 -29l21 -6v-3 q14 1 41 0q21 -3 37.5 -19t16.5 -37q0 -12 -6 -24q-5 -1 -12 -6q-1 0 0 -8l-21 -9v-3q-17 1 -50 -3q-8 -6 -24 -12q-17 -3 -50 1q-40 5 -47 5q-6 0 -14.5 -3t-9.5 -3q-22 -3 -57 0q-45 3 -58 3q-4 0 -15.5 -1.5t-13.5 -1.5l-36 15v6q-5 5 -15 32v6q-1 0 1 4.5t2 1.5l6 41 q1 3 6 6q7 3 19 0q13 -4 20 -3q15 6 35 12q13 -3 44 3q7 3 18 9q3 3 12.5 22.5t8.5 24.5q0 1 -3 5t-3 7q0 10 9 23l8 6q-2 3 -3 12q-17 13 -30 13q-12 0 -34 -13l-9 -9q-12 -1 -33 -9q-2 -3 -9 -8v-3q-5 -2 -12.5 2l-7.5 4q-8 0 -21 -3t-19 -3q-7 0 -13 3q-8 7 -21 17 q-12 0 -36 3q-7 2 -18 12t-16 10t-12 2.5t-21 14.5q-2 1 -18.5 21.5t-17.5 22.5q1 5 0 15l-15 26q-6 7 -14 18q2 5 0 21q-7 7 -15 20q0 1 -2 16t-4 14q7 24 6 32l-6 6q-8 21 -6 42zM114 357q-1 -2 2 -36l9 15q1 -1 6 3q3 -7 9 -18q4 2 12 3l15 -6v-14q-18 -13 -26 -32 q-4 -9 -13 -48q8 -2 24 -9v-9q4 0 9 -3q-3 -5 -3 -17q5 -4 12 -9q-1 -4 0 -9q4 -6 11 -15q1 -7 6 -18q6 0 15 -3q6 -3 6.5 -9.5t4 -7t13.5 -3.5h6q-1 -4 0 -12q3 -4 8 -12q7 -1 18 0q3 4 6 9h9q13 3 35 18q3 2 10 12q4 7 13 7q5 0 7 1q4 8 12 18q4 2 9 6q-1 3 0 9l8 3 q2 8 -3 15.5l-5 7.5q1 5 2 15q28 18 30 21q0 8 3 23l15 12q2 5 2 37q0 33 -2 43q-8 8 -18 24q1 6 0 17q-6 4 -15 12q-2 7 -9 18q-4 0 -11 3v9q-8 5 -18 14q-2 9 -9 24q-4 5 -12 7q-11 3 -15 5q-6 8 -20 20l-24 12q-6 -7 -18 -17q-16 -4 -47 -18q-2 -1 -27 -29t-26 -30 q-1 -10 -6 -33q-9 -11 -20 -26zM116 318l3 -5q-1 5 -3 5z" />
<glyph unicode="r" horiz-adv-x="711" d="M26 66q9 13 30 36q6 2 20 8q3 5 6 9q10 3 23.5 -2.5t24.5 -3.5v3l20 15q19 0 53 6l3 6q5 1 12 6q5 9 5 18q0 6 -3 21t-2 26q0 1 4 17q3 13 2 21q0 1 -3.5 9t-2.5 15h3q4 14 18 35q-2 1 -3 9q-1 3 3 6q-3 8 0 9q-7 11 -15 29q1 4 0 9q-4 3 -9 6q-1 6 4 11.5t5 6.5 q-1 7 0 20l9 24l6 3q-2 17 -3 12v6q-5 1 -15 6q3 20 3 17q0 8 -12 12q-7 3 -14 3q-8 0 -21 -4t-18 -5q-24 -3 -47 6l-3 6q-14 -4 -44 0q-10 4 -15 24q-3 9 -3 18q0 13 18 52q61 -2 70 0q6 6 15 12q8 2 16 -3l8 -6q12 -1 32 2t30 1q14 -4 41 -11v-6q6 0 18 -3q4 -6 15 -12 q14 1 41 0q1 0 15 -4q11 -3 17 -2l33 21q3 -1 9 0q7 5 17 11q11 -1 33 0l3 6q9 4 24 9q12 2 29 -4q10 -4 21 -8q17 2 50 -3q9 -9 26 -23q5 -1 15 -6q3 -7 12 -18q4 0 9 -3q0 -7 3 -20q8 -9 18 -27q1 -9 -4.5 -19t-4.5 -19l9 -21q2 -29 -9 -50q-6 -3 -12 -9q1 -4 0 -9 q-8 -10 -22.5 -11.5t-30.5 -3.5q-6 -4 -15 -9h-47q-7 24 -18 33q-4 0 -9 3q0 4 -3 12l-9 -3v-6q-7 -3 -20 2q-9 3 -18 7q-3 11 0 9q3 5 6 11q12 -1 9 -3q7 -4 17 -8q8 -1 8 4q0 4 -7 12.5t-9 9.5v3l-6 -6q-18 -6 -59 6q-6 4 -15 9q-2 -2 -9 -3q-3 -6 -9 -21l-6 -3 q1 -6 -3 -20q-4 -1 -11 -3q-1 -4 -3 -9q-5 1 -12 0q-1 -5 -3 -12q-8 -3 -19 -18q-4 -11 -3 -30q3 -23 1 -35q0 -1 -3 -10t-3 -13q0 -1 4 -9.5t2 -14.5q-4 -4 -9 -12q10 -14 16 -14q5 0 17 14q11 -3 12 -3q2 -26 3 -23l-12 -21q8 -10 17 -20l3 -15q23 10 38 10q11 0 21 -4 q7 -3 12 -13q9 -16 9 -17q16 -14 31 -29q21 -20 16 -42q-5 -4 -11 -12q-2 -5 -9 -14h-9q-10 -6 -30 -12q-11 1 -32 0v-6l-23.5 -8.5t-23.5 -3.5l-21 9q-38 8 -62 3l-6 -6q3 1 -24 3q5 0 -29 -3q-25 2 -71 3q-1 0 -11.5 -3t-12.5 -3q-6 1 -13.5 7.5t-9.5 7.5l-30 6l-3 6 q-20 -3 -27 0q-4 3 -17 17q-4 1 -9 3q0 6 -3 18zM363 240q-3 6 0 9q3 -1 3 -5q-2 -2 -3 -4z" />
<glyph unicode="s" horiz-adv-x="575" d="M24 232q0 9 2 14q10 28 41 28q7 0 13 -2q2 -2 11 -17h17q14 -8 6 -6v-3q-7 0 0 -3q1 -8 2 -11l-2 -8l22 -15q4 2 14 3v9l6 3q2 10 -7.5 24.5l-9.5 14.5q1 6 0 17q-4 2 -9 6q1 5 -2 17q-5 3 -12 8q-10 -8 -28 -11q1 4 0 11q-6 5 -14 14q0 6 -3 17q-4 5 -8 11q2 14 -3 40 q-7 1 -17 8q-2 4 -3 37q-2 32 0 37q9 7 20 17l-3 11q8 7 24 15q4 0 13 2v8q1 3 5 6l31 3q3 12 9 28q2 3 19 10t23 7q-6 0 20 -3q34 4 99 0q4 -4 11 -8q13 1 37 0q7 -9 25 -20q1 0 9 6q4 0 6.5 -3t4.5 -6q4 -1 11 0l3 9q9 -2 20 -12q-1 -4 0 -8h5v8q8 5 17 12q16 4 23 0v-6 q6 -8 14 -23q-1 -7 0 -19l6 -3q-3 -5 -3 -23q4 -6 8 -14q-2 -7 -2 -25l5 -12h6q2 -8 -2.5 -17t-3.5 -14l17 -22q-8 -6 -20 -17q0 -6 -2 -17q-6 -4 -12 -11q1 -5 0 -14q2 -2 2 -6t6 -4.5t6 -1.5q4 -5 12 -11q14 1 19 3q7 7 0 5q3 5 6 3v-8q1 0 3 -12q-11 2 -28 3 q-1 -4 -6 -11v-3q7 -4 23 -14q-7 -26 -6 -31q3 -1 8 -3q1 -5 3 -14h3q-2 -4 -3 -17l20 -20q-6 -17 -6.5 -18t-13.5 -10l6 -28l-4.5 -4.5t-4.5 -6.5v-3q-5 -1 -11 -3q0 -6 -3 -20q-10 -6 -22 -19v-6h-6q0 -3 -3 -9q-7 -2 -20 -8q-7 -11 -25 -25q-14 -1 -42 -6q-11 -8 -26 -17 h-36l-3 8q-4 1 -54 3q-22 -1 -59 3q-4 1 -23 23q-18 -1 -48 5q-2 8 -8 23h-14q-7 -8 -23 -23q-4 -1 -11 -5q0 -4 -9 -12q-10 -4 -16 -2q-7 2 -17 28q-1 3 -6 14q-4 3 -8 8q-3 7 1 34t7 31l6 6l-6 14q-19 47 -19 79zM122 438q2 -14 3 -11q-2 -24 0 -40q1 1 14 3v6 q5 1 29 -1.5t27 -4.5q3 -6 9 -14q3 -2 26.5 -13.5t26.5 -11.5q19 -3 63 5q3 2 7.5 4.5t8.5 1.5l9 -6q19 -4 31 3q2 4 6 9h22q2 7 6 25q-9 5 -26 17q-4 7 -14 17h-2q-3 8 0 31q-9 1 -23 3l-3 5q-5 -2 -20 -3l-11 6q-12 -3 -39 -3q-7 8 -20 17q-7 3 -35.5 6.5t-35.5 2.5 q-10 -2 -21 -18q-12 -19 -18 -22h-3v-5q-5 -3 -17 -9zM184 209q-2 -15 3 -14l3 -19l14 -6l3 -6h-12q3 -6 9 -22h17q21 -7 34 -17q2 -4 5 -9q7 -2 19.5 1.5t18.5 3.5q5 0 10 -2q2 -5 9 -14q5 -2 14 -6q8 19 21 32t27 25v8q-6 5 -11 12q-2 7 2 25l4.5 4.5t1.5 6.5q-4 0 -10 5 q1 5 -1 12q-4 0 -9 3q1 6 -3 14q-6 3 -14 6q-2 -5 -5 -11q3 -4 2 -9q-7 -6 -11 -23q-7 -1 -20 0q-3 5 -8 12q-3 -1 -8 0q-1 3 -3 8q-11 10 -43 14q-10 -15 -14 -31q-8 0 -28 -3q-2 4 -6 9q-3 -1 -8 0q1 -4 -3 -9zM260 184l9 6l3 3h14l3 -12q-4 -2 -9 -5h-14z" />
<glyph unicode="t" horiz-adv-x="628" d="M9 506q-1 11 3 45q3 17 20.5 20t35.5 5q8 5 20 11q10 3 25 1q15 -3 26 -1l14 9h37q-1 3 0 8q7 7 17 20q-5 8 -6 25q7 7 14 17q-1 5 -6 15q2 6 3 25l-5 3v31l17 14q3 10 11 28h11q3 3 9 6q19 2 29 -11q4 -5 13 -26q-1 -4 3 -11l25 -6q-1 -5 -5 -14q-4 0 -9 -3q2 -1 -3 -8 q10 -7 14 -9q-2 -19 0 -25l9 -3q9 -7 5 -42q-11 2 -36 8q0 -12 0 -11q30 -3 36 -14q0 -3 3 -9q8 -2 23 -8q2 -4 5 -9q7 4 26 6l8 -8h31q1 6 3 19q5 1 14 0q1 -3 3 -8l17 -11q13 1 37 0q20 -4 24 -14q-1 -2 1 -9q9 -6 20 -17v-6q1 -1 6 -1t6 -14q-1 -9 -1 -18h-14 q-5 -6 -14 -15q-19 -12 -45 -14q-15 -1 -40 6q-7 4 -17 8q-7 1 -14.5 -4.5t-10.5 -6.5q-9 1 -28 0l-34 -11q0 -40 -6 -68l-5 -8v-9q2 3 3 -1q0 -2 -1 -4q-6 -44 -1 -47.5t1 -17.5q-4 -6 -8 -14q0 -5 3 -8.5l3 -3.5q-3 -6 -3 -20q3 0 8 -2q1 -7 3 -23h3q-2 -1 -3 -6l9 -11 q-3 -7 -5 -7q-1 0 -1 2v-6h3q2 4 5 8q2 -2 9 -2l8 8l4.5 -6.5l7.5 -10.5v6q8 2 25 5q1 6 3 12q5 -2 17 0q-1 3 0 8h3q18 15 19 20q-1 8 -3 22q4 10 9 26q4 -1 33 0q22 0 32.5 -6.5t18.5 -28.5q10 -27 14.5 -33t28.5 -17v-3q3 1 8 0q9 -5 9 -10q0 -3 -20 -15q9 -12 14 -20 v-11q-5 -2 -12.5 -6.5t-7.5 -7.5t17 -12v-5l-31 -28q5 -4 12 -12q1 -6 -3 -20q-3 -10 -6 -19q-7 -2 -36 -3l-20 -6q-3 2 -14 3q-12 -2 -22 -12q-15 -14 -18 -16q-6 -4 -17 -4q-17 -1 -22 -2q-9 -5 -26 -11q-14 -2 -34 4l-28 10q-19 3 -53 17q-5 7 -15 17h-8q-1 5 -3 11 q-7 5 -17 14q-3 7 -3 46v5q0 1 -14 30q-9 19 -9 31q0 14 9 27q-18 40 -18 56q0 6 2.5 10t7.5 7q3 5 0 14v6l5 8q-3 12 -5 40l14 22q1 7 1 14q0 10 -6 35q-6 22 -4 36q-5 1 -14 6q1 3 0 8q0 1 -17 23q-6 1 -17 0l-2 -9q-3 0 -12 -3q-13 -2 -32 1q-23 3 -33 2q-51 -3 -53 -3z M370 235q2 11 6 28q4 2 8 5h20q7 -20 3 -36l-11 3h-12h-14zM379 195q4 0 3 6q-1 7 -3 5v-11zM602 174q0 1 3 1q2 0 3 -1q-1 -1 -3 -1q-3 0 -3 1zM613 180q0 1 3 1t3 -1q-1 -2 -3 -2q-3 0 -3 2z" />
<glyph unicode="u" horiz-adv-x="748" d="M25 554q1 12 11.5 24t22.5 13q10 1 24.5 -4t18.5 -5q1 0 6 3l5 3q6 1 14 -2.5t9 -3.5t7.5 3l6.5 3q11 2 31.5 -3t25.5 -8q11 -7 15 -20q-1 -6 0 -15q3 -2 8 -5q11 -17 12 -26q0 -2 -3 -3.5t-3 -2.5q2 -11 0 -34q-4 -4 -9 -8q1 -17 0 -49l-5 -20q5 -4 5 -5l-5 -3 q0 -12 -9 -29q-3 -2 3 -8q3 -10 10 -11.5l16 -3.5q-1 -9 -6 -28q-5 -5 -11 -17q-2 -13 2 -26q6 -3 12 -8q-3 -16 -3 -17q2 -6 6 -15q-2 -1 -15 -8q-4 -10 -2 -26q4 -5 8 -11q-3 -11 0 -34q3 -8 16 -11.5t15 -5.5q3 -8 9 -18h20q7 -3 17 3q4 8 11 17q1 1 26 9q-3 5 -3 17 q2 0 6 6q18 3 51 11q2 21 0 37q5 0 14.5 1.5t14.5 1.5q9 36 31 48v6q5 0 11 3v8q5 1 12 3q0 5 3 12h5v14q-1 0 -3 -6q-18 7 -17 17q3 4 6 9h14q-3 10 -5 40q2 1 5 3v22q-1 0 -3 -5q-9 -1 -34 -3v3q-1 6 -3 14q2 0 3.5 1t2.5 2l14 -9q17 -1 17 15q0 3 -2 18q-2 12 0 19 q2 2 5 8q-10 1 -37 6q-7 6 -20 14q-31 10 -65 0q-13 -4 -17 -3q-3 3 -9 6q11 31 0 88q2 4 6 9q8 5 22 5q7 0 22.5 -2t23.5 -2t14 2q10 5 26 11q26 4 43 -3q3 -4 8 -8q13 1 37 -3q8 -4 18 -21l14 -25l11 -14q0 -10 -3 -6q1 -5 -3 -3q0 -1 -2.5 -7.5t-2.5 -9.5q0 -1 8 -17 q-2 -10 -3 -28l3 -6l6 -9q-2 -21 3 -45q-1 -8 -3 -20q-8 -36 -6 -43q4 -4 9 -11q-3 -15 -6 -40q2 -25 12 -43q3 -2 8 -5v-9q-7 -5 -14 -14q-3 -15 6 -17l-9 -20q5 -8 28 -29l-2 -11q19 -2 49 -10t35.5 -14.5t10 -21.5t10.5 -20q1 -1 -6 -8q0 -8 -5 -20q-7 -6 -26 -9 q-14 -3 -29 -5q-35 -9 -99 -9q-24 0 -32 3q-4 7 -14 17q-12 2 -37 11q-6 10 -23 20q-6 1 -22 -11l-20 -17v-6q-12 1 -35 -3q-6 -6 -17 -14q-6 3 -17 6q-16 -7 -42 -15q-15 -1 -27 4.5l-22 10.5q-8 0 -23 5q-1 5 -5 12q-6 1 -17 6q-5 8 -20 19q-9 -1 -26 0q-11 4 -13 25 l-4 35l-9 9q-14 32 -14 52q0 10 3 19l6 3q4 9 8 26q-3 45 -6 45v6q0 5 4.5 10.5t4.5 6.5q-2 7 -3 26q8 13 17 31q2 9 -5.5 19t-8.5 12q1 8 0 23q-5 6 -11 17q4 20 0 54h-6q-6 5 -17 12q-18 -3 -49 -3q-5 1 -17 17q-2 1 -8 6q6 20 5 25q-3 5 -6 9q-6 8 -5 17z" />
<glyph unicode="v" horiz-adv-x="736" d="M20 511q10 44 29 54h11q8 4 20 9q15 2 80 -3q17 2 43 3q2 -3 8 -9q6 0 18.5 4.5t16.5 4.5q17 1 50 -7.5t44.5 -16.5t16.5 -22q7 -3 2 -3q-2 0 -4 -8t-4 -9q-6 1 -17 0q-3 -4 -9 -8q-5 0 -14 -3q-6 -12 -14 -26q-5 3 -5.5 -2.5l-0.5 -5.5q6 -1 17 -3v-12q-22 3 -43 -8 q2 -8 3 -23q5 -1 15 -6q-3 -18 -3 -17v-17q16 0 37 -6l5 -22q6 -9 20.5 -10t18.5 -6t10 -16q10 2 28 6q3 5 9 11q1 1 11 3q1 5 0 15q-6 2 -14 8q1 5 0 14q33 -2 48 6l3 11q-1 0 -3 6q-1 -1 -2 6q6 3 20 11l-3 12q-16 -4 -15 -4q-1 0 -5 18q5 0 17 3q-5 13 -12 28 q-20 4 -51 14q-1 5 -6 15q-6 7 -14 20q1 5 3 8q1 32 -6 46q8 -1 20 0q1 0 4 2.5t5 2.5q1 0 10.5 -4t12.5 -4l5 6q10 2 31.5 -0.5t31.5 0.5l6 5q8 1 18.5 -3t15.5 -4q4 0 7.5 3t9.5 7q9 -3 20 -6q2 0 7.5 3.5t9.5 2.5q1 0 3 -3t6 -3l5 6q7 2 36 -2t35 -6q13 -6 18 -18 q-2 -5 0 -17q2 -4 8 -7q11 -3 12 -4q-2 -17 0 -34q-26 -7 -46 -14q-4 -4 -11 -9q-10 2 -32 3q-15 -1 -51 -23q1 -5 3 -17q1 -6 0.5 -9t-0.5 -8q-4 -1 -12 -6q-1 -5 -5 -11h-9q-7 -17 6 -71l-3 -3l-6 -3v-11q-7 0 -20 -3l-14 -23q1 -4 3 -9q8 -1 17 -3q3 -11 3 -35 q1 -28 -3 -36l-20 -23h-6q1 -4 0 -17l-14 -20q8 -16 0 -48q-33 -2 -43 -6q0 -2 -5 -5q-6 -12 -12 -32q0 -10 12 -25q-3 -3 -6 -12q-30 4 -48 -8q-7 -6 -15 -11.5t-22 -3.5l-15 9q-6 0 -17 3l-5 6q-9 8 -20 22l-3 26l-9 9q1 6 0 17q-8 7 -17 20q-6 22 6 45q0 5 3 3q-2 1 -6 6 v11q-6 11 -14 31v12q-11 9 -29 28q-2 4 -11 29h-3q2 13 0 37q-11 11 -26 28q0 8 -2 23q-9 18 -20 54q-2 8 0 17q0 4 -4 11.5t-31 20t-39 14.5q-14 -2 -40 0q-9 3 -14 12q-8 15 -9 16zM314 446q-2 3 0 5q7 -7 0 -5zM322 306l15 -6v-5q1 0 2.5 1t2.5 2.5l3 4.5v9q-5 0 -20 3z M357 297q0 -17 22 -8q2 3 5.5 7t9.5 7q-6 4 -12 8.5t-14 3.5q-11 -3 -11 -18zM366 480l5 5q5 0 5 -6q-3 -2 -5 -5q-4 0 -5 6zM425 443q2 5 3 5q15 0 15 -6q-1 -2 -7 -2q-2 0 -3.5 -2t-4.5 -1q-11 7 -3 6zM483 49q0 3 13 15q6 -5 6 -8t-5 -6.5t-7 -5.5q-7 1 -7 5zM505 99 q0 2 3 2q2 0 3 -2q-1 -1 -3 -1q-3 0 -3 1z" />
<glyph unicode="w" horiz-adv-x="763" d="M27 552q11 6 32 14q15 3 35 -1q15 -2 30 -5q8 2 20 3l9 -5q18 3 51 0q5 -6 14 -15q5 0 11 -2v-9q4 -2 9 -6q-5 -34 -6 -28q6 -11 6 -12q-8 -7 -17 -17q-2 -3 -6 -23.5t-3 -27.5l6 -17q4 -1 9 -3q-20 0 -20 -7t22 -21q-7 -14 -7 -25q0 -9 10 -30h29q-3 2 3 6 q1 4 -2.5 10.5l-3.5 6.5q-1 5 3 32q3 0 8 2q1 6 3 15l6 2v12q4 2 8 6q1 5 6 17q8 6 20 17q-7 7 -17 20q0 11 -6 31q-5 1 -13.5 6.5t-11.5 47.5q11 9 34 20q6 1 15.5 -2.5t10.5 -3.5q3 0 28 3q2 1 20 0q15 0 41 4t39 4q11 0 23 -2q4 -1 20 -11q13 -8 25 -6q7 6 20 14 q9 -1 26 0q7 5 23 12q23 3 48 -3l6 -6q2 0 3 2.5t2 3.5q23 7 43 3q7 -2 27 -22.5t22 -26.5q6 -30 -29 -37q-5 1 -11 0q-1 -6 -3 -14q-4 -2 -9 -6q-1 -13 -5 -40l-6 -3q0 -8 -3 -25q-5 -7 -11 -17q0 -9 -3 -26l-12 -14q1 -4 3 -9q6 -1 12 -3q-1 -5 0 -14l-15 -20h-5 q-6 -12 -6 -34q1 -28 0 -34q-4 -5 -9 -12q1 -7 0 -20q0 -1 -4.5 -8t-3.5 -12l14 -19q-14 -18 -15 -19q-7 -10 -11 -24l-5 -6q-1 -4 5 -28q6 -1 15 -3v-6q-4 1 -8.5 3.5t-6.5 2.5v-9q-4 1 -11 0v-8l-20 -12q0 -3 -3 -11l-17 -14q-24 -27 -41 -27q-6 0 -13 1q-11 2 -27.5 14.5 t-19 21.5l-7.5 27q-4 2 -14 20l-6 2q-2 9 1.5 24t1.5 25q-6 7 -14 23q1 10 0 28q-3 6 -40 17q0 1 -6 17q9 3 6 3q5 2 7 2.5t13 3.5q-1 9 -3 20q-7 -9 -15 -17q-7 1 -8 3q-1 -1 -14 -9v-14q-3 -1 -6 -3v-9h-6q1 -5 0 -14q8 -4 17 -11v-9q-3 -1 -8 -3q0 -3 -3 -8h-6 q-1 -5 -5 -12q1 -1 5 -8h9v-6q1 0 3 -2t0 -4q-6 -4 3 -31q-28 -17 -35 -31q0 -9 -7 -22q-3 1 -10 -1v-3q0 -3 -4 -5t-4 -3q0 -8 -6 -20q-9 -7 -35 -9q-28 -3 -39 3q-7 3 -12 18t-8 19h-6q-11 4 -17 23q-9 27 3 57l6 3q-1 4 0 14q-11 6 -26 20q-1 6 -6 20l-5 3v8q-6 5 -12 12 q-3 11 -2 32.5t-1 29.5q0 1 -3 9t-2 14q0 1 6 12t5 17q-3 0 -8 2v9q-4 2 -9 6q1 8 0 22q-4 5 -9 12v6q3 15 0 22l-17 17q0 8 -5 23q-8 6 -17 20q3 8 0 20q-9 1 -23 6q-7 5 -17 37q-3 11 -9 37zM392 261l6 -3q-3 3 -6 3zM392 278l3 -8q-2 8 -3 8zM472 441q13 -9 37 -32l-3 -5 h-23v-12q5 -5 11 -14q-3 -13 0 -28h9l6 -12q0 4 3 9l2 3q8 2 8 5l-3 4.5t-2 10.5q10 9 23 25q12 26 9 40q-5 2 -12 6q0 -3 -3 34h-28q-11 -2 -23 -17q-6 -8 -11 -17zM492 310l8 -6q5 0 13 2t8 4q0 3 -27 8v-5q-1 -2 -2 -3zM506 529q3 -4 11 -8q2 -1 3 8h-14z" />
<glyph unicode="x" horiz-adv-x="698" d="M17 48v19q3 4 9 9q3 -1 8 0v6q7 -1 17 0q2 6 6 14q4 0 14 3l3 6q14 1 46 8q3 4 8 9q5 -1 14 0v5q5 -1 12 0q5 3 7 11.5t5.5 11t10.5 6.5q0 6 5 17q6 1 15 6q0 4 2 11q6 1 15 6l28 31q4 6 5 21t4 22l14 11q2 6 4 27q1 22 -1 27q-12 7 -26 17q-2 11 -8 29q-14 5 -32 14 q-2 8 -11 20h-3q1 6 0 14q-9 6 -20 15q-2 4 -9 17q-7 4 -17 1q-13 -2 -20 -1q-5 4 -14 8q-16 4 -28 0l-6 -5q-6 3 -17 8q-26 11 -31 37q-2 9 -2 16q0 14 21 33l12 14q8 3 19 2q15 -3 21 -2q12 6 31 14q14 3 37 3q28 0 43 -3l8 -6q19 -2 26 0q4 5 9 9q8 1 82 -31v-15 q4 2 15 3q1 4 5 9q4 -1 9 0q0 3 3 8q14 0 42 3q5 5 15 12q15 3 42 0q33 -4 40 -3q6 0 29 6q20 4 34 2l6 -5q12 0 37 -3q2 -4 5 -9q33 -20 33 -39q0 -6 -1 -12l-12 -20h-5q-5 -10 -17 -23q-8 -2 -26 0.5t-26 -0.5v-6q-5 -7 -20 -20q-8 0 -22 -5l-3 -3q-2 -1 -12.5 -22 t-10.5 -24q2 -4 0 -20l-6 -2q-3 -9 -14 -23h-9q-4 -2 -20 -23v-11q1 -2 23 -12q2 -21 -3 -37l6 -6q2 0 14 -2q4 -14 6.5 -18t11 -6t11.5 -5q10 -9 8 -46q-2 2 -5 -2q7 1 20 0q7 -3 10 -24l4 -31q42 0 48 -2q4 -5 12 -12q4 1 11 0q5 -5 14 -11q14 0 37 -9v-5q5 -5 9 -12 q2 -20 -20 -34q-12 -2 -34 -11q-4 -7 -12 -18q-15 -15 -40 -17q-8 0 -18 4t-13 5h-31h-43q-4 -4 -8 -9q-16 -4 -32 0q-5 6 -14 12q-3 -2 -14 -3q-9 5 -23 11l-43 3l-14 6q-12 0 -23 -6q-1 -4 -2.5 -6.5t-14.5 -10.5q-13 1 -40 0q-5 -2 -11 -4q-10 -3 -17 -2q-1 0 -8.5 3 t-8.5 3q-9 -4 -26 -8q-26 -2 -46 2l-8 6q-9 -1 -26 0q-7 4 -17 9q-6 -3 -23 0q-9 4 -23 22q0 7 -8 18h-3zM302 124q0 -3 8 -14q13 4 15 3q4 -5 11 -11h6q0 -9 3 -26q2 -1 8 -3q0 -7 1 -15t11 -5q4 2 4 7q1 9 1 10h-8q-1 6 -3 12q-4 -1 -9 0q2 4 3 14q-2 1 -5 3v11h-6 q4 0 4 5q1 9 2 9q-30 8 -38 6q-8 -1 -8 -6zM333 446q19 5 29 6h20q4 4 8 12q1 6 -6.5 17t-13.5 14h-11q-2 0 -9 11h-8v-5q-2 -5 -3 -12l6 -8q-2 0 3 -17q-6 -2 -15 -6v-12zM348 148q0 -2 5 -15h23l6 -17q3 2 14 6l-20 11q-1 9 3 20q-3 2 -9 9h-8q-14 -9 -14 -14z" />
<glyph unicode="y" horiz-adv-x="667" d="M22 -104q2 17 2 23q-2 45 0 50q5 5 11 14q3 14 14 37q9 8 38 15t51 7q29 0 43 -25q0 -1 3 -6q-4 -5 -6 -14q6 -6 14 -16q1 -11 6 -34q-17 -14 -14 -25q3 -3 8 -9v-8q24 -6 34 3q2 4 5 8h6q0 4 3 9q4 0 11 2q-1 6 0 14q3 7 8 14q6 2 11 6q2 6 -11 31q4 0 11 3q1 1 0 8 l23 3q5 37 5 36q-8 7 -19 23q-3 19 -11 58q-7 10 -17 28q-1 9 -6 26q-6 5 -14 16q-1 14 -8 42q-3 2 -6 3q-10 16 -14 37q2 6 0 25q-6 7 -14 20q1 9 0 28q-1 5 -10.5 14.5t-11.5 13.5q-2 12 -6 30l-5 3v23l-6 5q-1 3 -6 48q-5 1 -14 3q-2 -1 -13.5 -8t-16.5 -6q-10 6 -26 14 q-7 -2 -22 0q-1 3 -6 11q-5 4 -11 11q-1 5 3 42q31 14 52 14q14 0 26 -6l12.5 -8.5t15.5 -2.5q4 5 12 11q7 -2 22 -2q6 7 20 16q2 1 25 1q22 0 25 -1l17 -14q3 3 14 9q13 -10 28 -31q1 -5 0 -28l-25 -22q-7 0 -20 -3q-2 -4 -6 -9h-5l-3 -22l-6 -3q-10 -28 6 -61q7 -7 14 -17 q-2 -3 -3 -9q7 -6 17 -19q1 -9 8 -25q5 -3 12 -9q1 -8 5 -25q5 -13 20 -39v-9q19 -10 27 -10q5 0 9 2v8q5 3 12 9q-1 7 2 22q1 2 20 17q-2 12 0 34q6 3 14 11q16 32 0 70q11 8 22 17v14q6 13 6 14t-6 8.5t-8 7.5h-8q-1 12 -13 24q-4 0 -13 2q-1 4 -5 11q-7 3 -20 11 q2 15 11 34q4 -1 9 0q0 3 3 8q3 -1 8 0q5 9 20 22q11 5 30 5q12 0 46 -3q28 -3 41 -2l9.5 5t10.5 4l9 -4t10 -5q10 -1 20 3l3 6q9 0 23.5 -10.5t18.5 -17.5q0 -5 3 -14q10 -23 8 -31l-6 -3q-12 -19 -49.5 -34.5t-48.5 -32.5q0 -7 -5 -25q-5 -3 -11 -9v-16q-4 -7 -9 -17 q0 -10 -5 -31q-8 -6 -17 -20q2 -5 3 -16q-13 -13 -26 -34q3 -4 6 -17q-4 -7 -8 -17q1 -10 0 -31l-6 -8q1 -8 0 -22q-12 -6 -28 -17q-4 -6 -3 -14q1 -11 0 -14l-8 -6q-1 -5 5 -28q-4 1 -16 0q-1 -13 -6 -39q-8 -8 -17 -25q3 -10 3 -28q-4 -2 -8 -6v-17l-12 -25q-1 -1 -4 -1v0 q-3 0 -4 -2q-9 -17 3 -56q-3 1 -9 0q0 -3 -2 -8q-9 -2 -23 -11q1 -4 0 -11q-4 -12 -20 -23q-3 1 -8 0q-2 -3 -6 -8q-8 -2 -22 -9v-5q-5 -3 -9 -11.5t-8 -11.5q-3 1 -8 0q-2 -4 -6 -8q-10 -4 -26 -4q-20 0 -30 -2l-5 -5q-19 -5 -34 -3q-15 8 -42 20q-12 1 -34 8q-12 6 -29 29 t-21 38q-3 11 -2 22z" />
<glyph unicode="z" horiz-adv-x="609" d="M24 47q0 4 3 18q-2 7 0 23l18 12q26 21 42 39q5 12 20 32l39 30h6q1 7 6 24q4 8 19 19q20 14 22 16q3 7 12 18q12 3 33 12q5 9 15 21q4 -1 11 0l3 12q9 2 21 11q1 9 6 27h6q1 5 3 12q8 5 18 12q0 5 3 12h3q-1 3 0 9q3 0 9 3q3 2 3.5 11t1.5 12q5 12 30 33q2 0 9 3v6h-3 v15q-5 3 -95 0l-3 -9q-11 -3 -22 3l-16 8q-9 3 -32 1q-22 -3 -31 -7t-16 -20.5t-4 -32.5l6 -3q6 -9 3 -23l-12 -15q-4 -16 -12 -45h-6q-1 -5 -6 -12q-4 1 -12 0v-5q-6 -2 -21 -6q-3 -5 -8 -9q-14 -2 -17.5 5t-6.5 15l-12 12q-3 8 -3 25q1 20 0 26q-2 4 -4 10.5t-2 12.5 q4 12 9 30q-1 10 0 30q3 14 15 32l6 3q-2 17 6 42q3 3 24.5 7.5t28.5 4.5q1 -1 12 -4.5t18 -1.5q4 5 12 11h17q6 9 21 18q7 2 18 -2t12 -4q13 2 44 3q17 -4 45 -9q9 3 26 3q1 0 6.5 -3t8.5 -3q10 5 24 9q9 1 22 -2l16 -4q6 2 21 3q54 -1 83 -35q1 -2 12 -21q-5 -6 -12 -18 q1 -7 0 -20q-1 -4 -24 -21q0 -7 3 -18l9 -3q-13 -10 -17 -12q-7 -3 -24 -6q-3 -5 -6 -12q5 -13 3 -14l9 -6h-9q-2 -5 -6 -12q-5 0 -12 -3q0 -8 -6 -21h-9q-3 -2 -9 -9q-9 3 -26 3l-3 -6q-8 -2 -21 -6q-1 -7 0 -29q-6 -1 -12 -3v-12l-6 -3q-1 -6 -3 -15q-8 2 -27 -3 q-1 -1 -11 -21q-5 1 -12 0v-6q-1 1 15 3q4 -18 4 -22q0 -11 -19 -22v-6q-5 -1 -12 -6q-1 -6 -6 -15q-7 -1 -18 -9q1 -6 0 -17l-9 -3l3 -6q-18 1 -21 0q-2 -1 -5 -3q-3 -5 -9 -12h-3v-21q2 -1 9 -12q40 5 56 0l15 -9q2 4 9 9q14 5 35 2q24 -3 36 -2q15 5 44 12q2 14 9 33l6 3 q-1 7 0 21l3 8.5t3 14.5q0 3 -3.5 9.5t-2.5 11.5q5 7 11 17.5t16 38.5q34 -2 54 -17q31 -24 38 -27q-2 -5 -6 -18l-6 -6q1 -10 3 -6q2 -25 -6 -38l-6 -3q-3 -14 0 -45l6 -6q4 -16 0 -41q-3 -23 -9 -33q-4 -2 -8 -7t-7.5 -11t-10.5 -7q-10 1 -30 -1q-8 -6 -21 -12 q-20 1 -62 -3q-18 -5 -45 -3q-42 3 -47 3t-20 -3.5t-25 -2.5l-21 9q-10 1 -50 3q-7 0 -19.5 -3t-15.5 -3q-8 -1 -21 2q-16 3 -18 4q-19 -2 -56 0q-5 4 -12 9l-25 8q-6 3 -14 21q-4 6 -9 15zM196 88q11 -2 18 -2q4 0 12 2q2 2 1 8q0 5 -4 1l-15 12q-3 -2 -12 -6v-15zM405 317 q-2 6 5 6q4 0 5 -3t-1 -6t-4 -3q-4 0 -5 6z" />
<glyph unicode="&#xad;" d="M41 407q-10 56 4 65h10l2 4l35 23q15 -3 45 -4q3 1 7.5 3t9.5 1t15 -10t17 -9l5 5q6 3 6 5q0 1 -3 3t-3 4q0 5 2 8q-5 0 2 2q9 2 10 -4v-12l8 -4q6 -1 15.5 4.5t15.5 5.5l6 -4q6 -2 13 1t12 3q7 -3 18 -6q13 1 41 2q12 -3 15 -2q6 3 14 6q4 0 11 -3l7 -3q8 1 21 2 q4 -5 10 -11q8 -2 21.5 2.5t21.5 2.5v-2q7 -3 21 -11l2 -4q7 1 20 -2l25 -41l6 -4q1 -4 -1.5 -8l-2.5 -4q1 -2 2 -9h2q0 -3 -2 -10q-1 -2 -18 -19t-19 -18q-12 -6 -34.5 -6.5t-43.5 -1.5q-1 0 -13 -2.5t-18 -1.5l-7 3t-9 3q-3 -3 -8 -6q-1 0 -27 4q-8 -2 -27 -2q-3 0 -9.5 3 t-10.5 3q-5 -1 -10 -3q-9 -2 -15 -1q-6 3 -14 6q-4 -1 -14 -2q-8 3 -19 6q-3 0 -13.5 -4t-11.5 -4q-4 0 -15.5 4t-14.5 4q-7 1 -45 -2q-27 -2 -42 4q-1 3 -4 6q-20 16 -24 42z" />
<glyph unicode="&#xb4;" horiz-adv-x="238" />
<glyph unicode="&#x2000;" horiz-adv-x="411" />
<glyph unicode="&#x2001;" horiz-adv-x="822" />
<glyph unicode="&#x2002;" horiz-adv-x="411" />
<glyph unicode="&#x2003;" horiz-adv-x="822" />
<glyph unicode="&#x2004;" horiz-adv-x="274" />
<glyph unicode="&#x2005;" horiz-adv-x="205" />
<glyph unicode="&#x2006;" horiz-adv-x="137" />
<glyph unicode="&#x2007;" horiz-adv-x="137" />
<glyph unicode="&#x2008;" horiz-adv-x="102" />
<glyph unicode="&#x2009;" horiz-adv-x="164" />
<glyph unicode="&#x200a;" horiz-adv-x="45" />
<glyph unicode="&#x2010;" d="M41 407q-10 56 4 65h10l2 4l35 23q15 -3 45 -4q3 1 7.5 3t9.5 1t15 -10t17 -9l5 5q6 3 6 5q0 1 -3 3t-3 4q0 5 2 8q-5 0 2 2q9 2 10 -4v-12l8 -4q6 -1 15.5 4.5t15.5 5.5l6 -4q6 -2 13 1t12 3q7 -3 18 -6q13 1 41 2q12 -3 15 -2q6 3 14 6q4 0 11 -3l7 -3q8 1 21 2 q4 -5 10 -11q8 -2 21.5 2.5t21.5 2.5v-2q7 -3 21 -11l2 -4q7 1 20 -2l25 -41l6 -4q1 -4 -1.5 -8l-2.5 -4q1 -2 2 -9h2q0 -3 -2 -10q-1 -2 -18 -19t-19 -18q-12 -6 -34.5 -6.5t-43.5 -1.5q-1 0 -13 -2.5t-18 -1.5l-7 3t-9 3q-3 -3 -8 -6q-1 0 -27 4q-8 -2 -27 -2q-3 0 -9.5 3 t-10.5 3q-5 -1 -10 -3q-9 -2 -15 -1q-6 3 -14 6q-4 -1 -14 -2q-8 3 -19 6q-3 0 -13.5 -4t-11.5 -4q-4 0 -15.5 4t-14.5 4q-7 1 -45 -2q-27 -2 -42 4q-1 3 -4 6q-20 16 -24 42z" />
<glyph unicode="&#x2011;" d="M41 407q-10 56 4 65h10l2 4l35 23q15 -3 45 -4q3 1 7.5 3t9.5 1t15 -10t17 -9l5 5q6 3 6 5q0 1 -3 3t-3 4q0 5 2 8q-5 0 2 2q9 2 10 -4v-12l8 -4q6 -1 15.5 4.5t15.5 5.5l6 -4q6 -2 13 1t12 3q7 -3 18 -6q13 1 41 2q12 -3 15 -2q6 3 14 6q4 0 11 -3l7 -3q8 1 21 2 q4 -5 10 -11q8 -2 21.5 2.5t21.5 2.5v-2q7 -3 21 -11l2 -4q7 1 20 -2l25 -41l6 -4q1 -4 -1.5 -8l-2.5 -4q1 -2 2 -9h2q0 -3 -2 -10q-1 -2 -18 -19t-19 -18q-12 -6 -34.5 -6.5t-43.5 -1.5q-1 0 -13 -2.5t-18 -1.5l-7 3t-9 3q-3 -3 -8 -6q-1 0 -27 4q-8 -2 -27 -2q-3 0 -9.5 3 t-10.5 3q-5 -1 -10 -3q-9 -2 -15 -1q-6 3 -14 6q-4 -1 -14 -2q-8 3 -19 6q-3 0 -13.5 -4t-11.5 -4q-4 0 -15.5 4t-14.5 4q-7 1 -45 -2q-27 -2 -42 4q-1 3 -4 6q-20 16 -24 42z" />
<glyph unicode="&#x2012;" d="M41 407q-10 56 4 65h10l2 4l35 23q15 -3 45 -4q3 1 7.5 3t9.5 1t15 -10t17 -9l5 5q6 3 6 5q0 1 -3 3t-3 4q0 5 2 8q-5 0 2 2q9 2 10 -4v-12l8 -4q6 -1 15.5 4.5t15.5 5.5l6 -4q6 -2 13 1t12 3q7 -3 18 -6q13 1 41 2q12 -3 15 -2q6 3 14 6q4 0 11 -3l7 -3q8 1 21 2 q4 -5 10 -11q8 -2 21.5 2.5t21.5 2.5v-2q7 -3 21 -11l2 -4q7 1 20 -2l25 -41l6 -4q1 -4 -1.5 -8l-2.5 -4q1 -2 2 -9h2q0 -3 -2 -10q-1 -2 -18 -19t-19 -18q-12 -6 -34.5 -6.5t-43.5 -1.5q-1 0 -13 -2.5t-18 -1.5l-7 3t-9 3q-3 -3 -8 -6q-1 0 -27 4q-8 -2 -27 -2q-3 0 -9.5 3 t-10.5 3q-5 -1 -10 -3q-9 -2 -15 -1q-6 3 -14 6q-4 -1 -14 -2q-8 3 -19 6q-3 0 -13.5 -4t-11.5 -4q-4 0 -15.5 4t-14.5 4q-7 1 -45 -2q-27 -2 -42 4q-1 3 -4 6q-20 16 -24 42z" />
<glyph unicode="&#x2013;" horiz-adv-x="500" d="M100 250v100h300v-100h-300z" />
<glyph unicode="&#x2014;" horiz-adv-x="1000" d="M100 250v100h800v-100h-800z" />
<glyph unicode="&#x2018;" horiz-adv-x="238" d="M29 691q-1 23 0 28q5 6 12 18q0 7 4 21q7 2 17 8q1 7 6 18q1 2 20.5 9.5t22.5 7.5q5 -4 14 -9q3 2 10 2q3 -3 7 -8q12 -5 28 -14q3 -9 11 -27q3 -3 8 -10q-1 -3 0 -8q5 -6 12 -19q-2 -6 -2 -22l4 -4q1 -3 6 -27l-6 -4q1 -5 0 -13q-9 -9 -22 -24q2 0 -2 -4q2 -7 2 -23 q-4 -3 -9 -10q-2 -11 7.5 -25l9.5 -14q1 -13 -17 -29q2 -1 1 -10q-2 -9 -4 -10t-9 -4q-6 -11 -20 -25q-9 -4 -22 -4q-38 0 -50 16q-21 27 -15 76q3 8 2 10q-3 4 -6 9q-2 26 -8 55q1 1 2 4q-5 8 -10 17q3 4 4 18q-3 2 -5 5t-3 25z" />
<glyph unicode="&#x2019;" horiz-adv-x="238" d="M29 691q-1 23 0 28q5 6 12 18q0 7 4 21q7 2 17 8q1 7 6 18q1 2 20.5 9.5t22.5 7.5q5 -4 14 -9q3 2 10 2q3 -3 7 -8q12 -5 28 -14q3 -9 11 -27q3 -3 8 -10q-1 -3 0 -8q5 -6 12 -19q-2 -6 -2 -22l4 -4q1 -3 6 -27l-6 -4q1 -5 0 -13q-9 -9 -22 -24q2 0 -2 -4q2 -7 2 -23 q-4 -3 -9 -10q-2 -11 7.5 -25l9.5 -14q1 -13 -17 -29q2 -1 1 -10q-2 -9 -4 -10t-9 -4q-6 -11 -20 -25q-9 -4 -22 -4q-38 0 -50 16q-21 27 -15 76q3 8 2 10q-3 4 -6 9q-2 26 -8 55q1 1 2 4q-5 8 -10 17q3 4 4 18q-3 2 -5 5t-3 25z" />
<glyph unicode="&#x201c;" horiz-adv-x="409" d="M36 697q-5 14 0 25l4 2q-3 15 -2 48q0 1 7.5 14.5t8 14.5t24.5 6t25 5q26 3 41 -11q0 -5 2.5 -11t16 -12t21.5 -4l7 9h7q6 4 16 9q8 0 24 2q16 8 48 18q11 1 26 -6q10 -6 21 -12v-9l20 -11l11 4q1 -2 5 -9l4 -2q5 -12 0 -25l-4 -2q3 -3 2 -16q0 -1 -7 -9t-6 -13 q5 -4 11 -12q2 -4 2 -9q0 -4 -5 -13.5t-4 -19.5l4 -16q3 -12 1 -18q-11 -5 -23 -14q0 -8 -2 -22h-5q-2 -12 -2 -13q0 -4 9 -7q3 -2 11 0l3 -7q-5 -4 -14 -9h-9q-9 -6 -13 -61q-40 -13 -39 -13q-10 0 -27 13h-4q-2 3 -5 9h-4q-3 5 -2.5 16.5t-2.5 17.5h-4q-11 4 -14 11 q1 4 0 11q3 1 6.5 4t7.5 5v9l-2 5q0 6 -3 18q-5 5 -11 13q-1 7 6.5 16.5t7.5 16.5q0 6 -3 12q-5 3 -13 12q-3 6 0 20q-2 6 -4 13q-2 2 -11 4.5t-14 2.5q-10 0 -12 -10q-4 -17 -6 -20t-14 -8l-5 -25q4 -1 12 -4q-4 -3 -7 -7q1 -5 2 -16q-2 -8 -7 -25q4 -1 6 -2t3 -9 q-2 1 -6 -11h-5q0 -2 5 -7q1 -9 -5 -18q-7 -3 -16 -11q-1 -4 3 -25q-9 -3 -23 -11q0 -2 -2 -7q-5 -8 -25 -11q-10 10 -25 34q-10 24 -6 63l2 7.5t2 12.5q0 1 -2 9t-2 9q0 2 3 17t1 23l-7 7q0 11 -6 25q1 1 2 4q-5 6 -11 16zM162 722q1 -2 2 -9h7q1 0 11 -7q7 0 17.5 5.5 t11.5 10.5v38l-16 6q-11 4 -18 3q-4 -2 -13 -6q0 -1 2 -12l7 -2v-4q-1 3 -2 -7q4 -4 4 -5h-4q-2 -5 -7 -11h-2z" />
<glyph unicode="&#x201d;" horiz-adv-x="409" d="M36 697q-5 14 0 25l4 2q-3 15 -2 48q0 1 7.5 14.5t8 14.5t24.5 6t25 5q26 3 41 -11q0 -5 2.5 -11t16 -12t21.5 -4l7 9h7q6 4 16 9q8 0 24 2q16 8 48 18q11 1 26 -6q10 -6 21 -12v-9l20 -11l11 4q1 -2 5 -9l4 -2q5 -12 0 -25l-4 -2q3 -3 2 -16q0 -1 -7 -9t-6 -13 q5 -4 11 -12q2 -4 2 -9q0 -4 -5 -13.5t-4 -19.5l4 -16q3 -12 1 -18q-11 -5 -23 -14q0 -8 -2 -22h-5q-2 -12 -2 -13q0 -4 9 -7q3 -2 11 0l3 -7q-5 -4 -14 -9h-9q-9 -6 -13 -61q-40 -13 -39 -13q-10 0 -27 13h-4q-2 3 -5 9h-4q-3 5 -2.5 16.5t-2.5 17.5h-4q-11 4 -14 11 q1 4 0 11q3 1 6.5 4t7.5 5v9l-2 5q0 6 -3 18q-5 5 -11 13q-1 7 6.5 16.5t7.5 16.5q0 6 -3 12q-5 3 -13 12q-3 6 0 20q-2 6 -4 13q-2 2 -11 4.5t-14 2.5q-10 0 -12 -10q-4 -17 -6 -20t-14 -8l-5 -25q4 -1 12 -4q-4 -3 -7 -7q1 -5 2 -16q-2 -8 -7 -25q4 -1 6 -2t3 -9 q-2 1 -6 -11h-5q0 -2 5 -7q1 -9 -5 -18q-7 -3 -16 -11q-1 -4 3 -25q-9 -3 -23 -11q0 -2 -2 -7q-5 -8 -25 -11q-10 10 -25 34q-10 24 -6 63l2 7.5t2 12.5q0 1 -2 9t-2 9q0 2 3 17t1 23l-7 7q0 11 -6 25q1 1 2 4q-5 6 -11 16zM162 722q1 -2 2 -9h7q1 0 11 -7q7 0 17.5 5.5 t11.5 10.5v38l-16 6q-11 4 -18 3q-4 -2 -13 -6q0 -1 2 -12l7 -2v-4q-1 3 -2 -7q4 -4 4 -5h-4q-2 -5 -7 -11h-2z" />
<glyph unicode="&#x2026;" horiz-adv-x="1014" d="M720 95q0 2 10 10q0 7 2 21q7 4 17 14q0 3 2 10h2q8 9 25 23q9 1 25 6q0 2 2 7q7 12 25 12q8 0 13 -3.5l9 -6.5q12 -1 35 -7q6 -8 17 -20q13 -3 35 -15q1 -4 4 -14q6 -4 15 -13q0 -7 4 -24q4 -4 8 -9q6 -21 -6 -39q-3 -1 -8 -4q-4 -8 -13 -21q-7 -3 -16 -10q-3 -8 -9 -17 q-9 -1 -24 -6q-3 -4 -9 -10q-18 -14 -35 -15q-6 2 -23 2q-11 -2 -14 -2q-15 3 -56 33q0 3 -2 7q-4 1 -10 6q-1 9 -6 25q-5 3 -11 10q-2 6 1 10q5 8 5 9v4q-2 2 -8 12.5t-6 14.5zM382 95q0 2 10 10q0 7 2 21q7 4 17 14q0 3 2 10h2q8 9 25 23q9 1 25 6q0 2 2 7q7 12 25 12 q8 0 13 -3.5l9 -6.5q12 -1 35 -7q6 -8 17 -20q13 -3 35 -15q1 -4 4 -14q6 -4 15 -13q0 -7 4 -24q4 -4 8 -9q6 -21 -6 -39q-3 -1 -8 -4q-4 -8 -13 -21q-7 -3 -16 -10q-3 -8 -9 -17q-9 -1 -24 -6q-3 -4 -9 -10q-18 -14 -35 -15q-6 2 -23 2q-11 -2 -14 -2q-15 3 -56 33 q0 3 -2 7q-4 1 -10 6q-1 9 -6 25q-5 3 -11 10q-2 6 1 10q5 8 5 9v4q-2 2 -8 12.5t-6 14.5zM44 95q0 2 10 10q0 7 2 21q7 4 17 14q0 3 2 10h2q8 9 25 23q9 1 25 6q0 2 2 7q7 12 25 12q8 0 13 -3.5l9 -6.5q12 -1 35 -7q6 -8 17 -20q13 -3 35 -15q1 -4 4 -14q6 -4 15 -13 q0 -7 4 -24q4 -4 8 -9q6 -21 -6 -39q-3 -1 -8 -4q-4 -8 -13 -21q-7 -3 -16 -10q-3 -8 -9 -17q-9 -1 -24 -6q-3 -4 -9 -10q-18 -14 -35 -15q-6 2 -23 2q-11 -2 -14 -2q-15 3 -56 33q0 3 -2 7q-4 1 -10 6q-1 9 -6 25q-5 3 -11 10q-2 6 1 10q5 8 5 9v4q-2 2 -8 12.5t-6 14.5z " />
<glyph unicode="&#x202f;" horiz-adv-x="164" />
<glyph unicode="&#x205f;" horiz-adv-x="205" />
<glyph unicode="&#x2122;" horiz-adv-x="1388" d="M641 738v15q4 2 9 6q11 -2 33 0q5 8 17 17q9 2 18 -4.5t12 -7.5l21 9q0 4 3 9h26q3 -5 3 -6h27q2 6 3 6l3 -9h30v-3q16 4 50 3q3 -5 9 -12q5 1 15 -2q6 -5 7 -18q1 -20 1.5 -22.5t6.5 -12t5 -16.5q-6 -7 -14 -20q-2 -15 -3 -33q8 -8 23 -21q-9 -50 -3 -68q5 -2 9 -6v-6 q8 0 21 -3v-9q-7 0 -18 -3q0 -4 -6 -11q7 -9 21 -24q1 1 3 -9q-20 -11 -18 -24q7 -5 15 -14q1 -8 -3 -12q7 -9 15 -18q-2 -7 -18 -24q0 -5 3 -15q7 -3 18 -11q9 -12 15 -51q6 0 18 -3q4 3 7 8t3 9q0 6 -4.5 16.5t-4.5 17.5q0 4 1 8q6 3 12 9q3 6 1 13q-2 8 -1 11q8 9 18 27 q-1 4 0 12q6 3 12 11q1 5 -2.5 10l-3.5 5q-5 25 0 48q7 7 15 17q1 7 -3.5 17t-2.5 19q7 7 15 21q1 5 1 10q0 8 -4.5 24t-2.5 25h3q1 4 3 9q10 8 10 9l-1 6q0 4 3 12q4 2 8 5q1 8 -5.5 18t-5.5 18l6 6q-1 6 3 18q5 2 14 9q1 2 3 8q6 9 27 23.5t33 15.5q8 1 22 -2.5t16 -3.5 q22 5 65 6q8 -4 21 -9l12 6q5 1 24 -12q4 -1 11 -6l3 -6q1 -12 3 -41q-10 -3 -29 -12v-6q-8 -4 -8.5 -9t-3.5 -9q-7 -9 -24 -17l-6 -3q1 -10 0 -27l-9 -9q-1 -5 -3.5 -28.5t-2.5 -24.5l18 -18q-1 -2 -9 -9q5 -17 -3 -56q5 -3 12 -9l-12 -24q2 -8 3 -18q4 -1 3.5 -4.5 t2.5 -4.5q-1 -2 -6 -8q-2 -8 1 -18.5t2 -17.5l-9 -9q-1 -5 2.5 -12.5t3.5 -8.5q-3 -7 -3 -23q4 -3 9 -6q9 -16 6 -18q-3 -8 -12 -21l3 -15q2 0 6 -3q-13 -50 -13 -76q0 -6 2.5 -8t7.5 -4q6 -33 6 -39q0 -5 -5 -13t-4 -17q2 -9 19 -18q13 -6 26 -11q28 -14 34 -21 q10 -11 13 -38l-6 -3q3 0 2 -4q0 -4 -2 -5l-15 -3q0 -4 -2.5 -7.5t-29.5 -10.5q2 0 -33 3q-17 -3 -53 -3l-15 6q-1 0 -9 -3t-9 -3q-16 1 -44 0l-6 -6q-13 -3 -33 3q-11 4 -19.5 17l-15.5 24q-5 -2 -5.5 1t-0.5 5q3 0 12 3q3 11 0 12q-11 -9 -12 -9t-15 3q0 -7 -6 -20 q-7 -3 -15 -9q0 -2 3 -21q-2 -1 -6 -6q-16 -2 -59 3q-5 43 -33 62q9 19 9 21v3q-5 2 -4.5 21.5t-1.5 22.5q-5 5 -11 12q-2 4 -2 8q0 5 5.5 13.5t4.5 17.5q-6 13 -14 35q1 8 0 24q-4 8 -12 27l-6 3q-2 9 1 24t2 23l-15 47l-6 6q0 14 -3 42q-2 10 -21 59q0 5 -6 12q-2 1 3 9 q1 0 6 3q-1 13 -6 47q-6 15 -17 45l-6 3v20l-6 3q-5 14 3 45q-7 5 -30 15q-1 -2 -9 -9q4 -15 9 -54h15q-5 -2 -15 -3q1 -3 -3 -9q3 -5 6 -11q-3 -2 -2 -14q0 -10 3.5 -13l10.5 -9q-7 -10 -15 -24q0 -8 -3 -23l-6 -6q3 -23 -3 -65l-15 -9q-2 -5 -2 -8q0 -2 11 -16t21 -21 q-4 -15 -6 -32q1 -3 21 -15q-4 -6 -9 -15q-1 -7 3 -20t4 -19q0 -4 -1 -8h-6q0 -4 -3 -12l6 -3q0 -4 3 -21q-1 -1 -3 -4q-2 -4 0 -5q-9 -10 -6 -12q2 -1 6 -12q3 -25 -11 -33q-19 -12 -22 -17q-2 -4 0 -15q1 -2 -3 -6v-3l45 -12q30 -9 38 -17q2 -2 0 -3l-4 -2q0 -1 1 -1 q8 -5 9 -13v-17q19 -3 42 -9q2 -1 12 -32l-12 -3q-2 -4 -6 -9h-30q-23 -1 -68 -6l-15 -6l-9 6q-12 -1 -35 0l-9 6q-23 -2 -68 0q-9 3 -24 9q0 1 -6 15q21 16 51 23q0 3 -3 9q7 13 20 33q4 5 45 29v6q-16 12 -33 30q-1 6 5.5 16.5t6.5 13.5q-4 15 -6 50l6 12q-1 8 0 23 q4 5 9 12q2 12 -4 24q-8 17 -8 18q-4 22 3 32l6 3q5 22 0 48l-9 9v3q0 -3 3 1q2 5 0 5v5q0 12 -3 36q-3 3 -6 15q2 9 6 32q-1 43 -6 101q-4 6 -9 15q2 19 -6 56q-13 22 -53 30q-4 -1 -12 0q-2 3 -9 9zM1071 157l15 -15v-9l-9 -3l-3 -17l18 -12q9 -9 10.5 -18t2.5 -9 q3 0 19 9q-9 5 -9 8q0 2 7 5t8 5v6q8 -5 6 -6q21 -1 39 9q-4 16 -3 17q1 5 12.5 12.5t13.5 14.5q3 11 -2 34t-10 22l3 6q12 20 12 33q1 18 -6 35l-6 3q-2 10 9 30h6q2 6 -2 26t-7.5 23.5t-8.5 6.5q-1 9 7 16.5t8 10.5q-3 12 -6 12l9 21q-15 18 -15 26t15 30l-12 9v3 q-7 2 -15 -3t-14 -3q-2 4 -6 15q10 2 6 3q1 0 3 6l6 -3q7 -9 14 -3q1 1 0 8q2 4 3 9q-2 18 6 48q0 3 -9 6q-2 0 -24 -6.5t-23 -8.5q0 -8 -3 -24l-6 -3v-9h-6q-1 -6 5.5 -14t6.5 -9q-5 -11 -6 -30q11 -5 24 -12q2 -6 6 -15q-6 -3 -12 -9q1 -8 -3 -23q-7 -2 -15 -6 q-3 -6 -3 -10q0 -6 4.5 -11.5l4.5 -5.5q-1 -14 -3 -9q-1 -4 -3 -3q-6 -5 -21 -15q11 -18 11 -23q0 -3 -7 -6t-10 -12q2 -7 3 -21q0 -1 -4.5 -11t-3.5 -12q2 -4 5 -12q-1 -4 -5 -9h-9q-1 -2 -4 -6t-2 -9q0 -1 3.5 -9.5t2.5 -14.5l-12 -15h-6v-20l6 -3q-5 -5 -6 -21zM1092 71 q3 -1 8 -3q-5 3 -8 3zM1154 596l18 -3q6 21 8 50q-6 0 -20 3q-8 -28 -6 -50zM15 457q0 -3 2.5 32.5t8.5 112.5q6 54 6 50l-4 33q-3 24 1 39q1 2 16 17t16 15h6q1 5 6 18q3 2 9 9q14 -4 14 -3q4 4 8 9q8 8 16 8l17 -12q7 2 17 3q5 0 15.5 -11t19.5 -9q1 4 3 9q6 4 21 8 q8 3 37 4q27 1 32 -1q1 0 6 -3t9 -2q16 8 44 17q10 1 25.5 -2.5t23.5 -3.5l15 6q-4 -1 23 -3q27 3 78 -3q29 -10 67 -64q4 -2 12 -3q3 3 12 6q-1 -3 0 -12q-12 2 -9 3h-18v-32h6l-3 -5q4 -3 2 -10q-2 -5 -5 -11q-2 -14 1 -17q7 -5 14 -9v-9q-4 0 -9 -3q-1 -4 1 -14l2 -12 q-4 -25 0 -75l9 -9q2 -8 2 -16q0 -15 -7 -33l-10 -27q-1 -13 -8 -29q-14 -8 -32 -3q-11 3 -16.5 17l-10.5 27q-6 7 -14 20q1 9 -3 26q-8 5 -17 12q-3 6 -3 12q0 12 23 26v9l-12 5q3 17 3 18l-17 14q3 10 3 32l-18 15v12h9v5q-6 7 -15 15q-27 9 -64 3q-17 -3 -16 -8 q1 -12 -1 -15q-5 -1 -12 -3q0 -3 -3 -9q-6 -5 -20 -15q-1 -6 0 -17l6 -3q12 -31 11 -35q0 -3 -8 -12t-6 -20q0 -1 7.5 -9.5t6.5 -16.5l-8 -6v-20q-1 -2 -6 -15q-4 -9 -3 -17q8 -9 17 -26q1 -4 -5 -27q5 -2 6 -17q2 -15 -1 -26q-4 -4 -8 -9q-9 -20 -3 -47q0 -2 6 -11.5 t5 -20.5h-2v-14l-6 -3q-2 -11 3 -19q3 -3 5 -7q1 -4 -2 -12q4 -2 2 -35q-3 -39 -2 -43q1 -7 2 -15l6 -3q-2 -3 -3 -9q5 -7 15 -8q21 1 26 3q2 2 6 8q7 2 68 -13t66 -19t11 -21q8 -20 9 -22l-12 -3q-2 -5 -5 -15q-9 1 -9 0q0 -2 3 -8q-2 -1 -6 -6q-67 -10 -79 -9 q-16 5 -49 12q-70 5 -93 0q-3 -3 -12 -6q-28 -2 -43 0q-8 5 -21 11q-3 1 -20 -2q-5 -1 -14.5 2t-11.5 3q-3 0 -10 -2.5t-8 -2.5h-26l-14 -6q-6 -1 -14 2l-24 9q-2 6 -3 15q0 2 11 26q5 0 3 2q-1 1 -4 2.5t-7 7.5v8q7 6 17 12q4 1 58 -3q19 -3 21 -3q10 8 29 18q14 -1 43 3v5 q4 2 9 6q2 5 2 13q0 6 -2 20.5t-2 21.5q0 8 3.5 14t10.5 21q3 3 3 6l-12 15q-2 6 -5 25.5t-1 23.5q10 4 21 21q-2 4 -3 11q-10 22 -21 61q0 5 3 10q2 2 3 5l-3 38h3q0 2 -3 11q5 3 3 6l-17 15q4 11 17 29l-9 11q1 10 0 30q0 2 -6.5 13t-4.5 19q5 4 11 11q6 15 3 29v6l-5 6 q-2 10 2 19.5t4 10.5q0 5 -6 11q-1 1 -3 5q-2 0 -3 6q1 -1 6 3q-11 10 -12 12v9q-4 1 -11 1q-13 0 -29.5 -4.5t-17.5 -8.5v-12q-6 -3 -12 -3q-3 0 -15 3q-10 2 -17 0l-17 -17l-12 -6q-4 -9 -2 -28q3 -22 2 -30q-6 -43 -6 -44l-6 -3l6 -14t3 -15q0 -10 -8 -26t-9 -20 q1 -9 0 -27l-6 -2q-14 -21 -32 -18q-17 3 -21 18q1 4 0 11q-5 5 -11 15zM349 79q1 4 3 8q2 9 2 13q0 7 -5 5q-3 -2 0 -26zM349 672h6q-1 1 1 7q1 5 -7 5q-3 -10 0 -12zM358 239l29 14q1 -5 6 -14q-13 -12 -13 -19q0 -5 4 -8h-14v9q-4 2 -9 6q0 -1 -3 12zM370 537q-2 4 3 4 t6 -4t-3 -5q-5 0 -6 5zM370 605v15l6 3q5 -4 17 -12q-10 -7 -6 -9q-2 1 -17 3zM382 497q0 3 5 3q11 1 11 -6q0 -5 -8 -5q3 -3 -1 -3h-5q2 0 0 4q-2 5 -2 7zM390 195q3 7 3 3q25 -5 25 -10q0 -3 -8 -8t-12 -5q-1 0 -8 20zM427 652q0 3 4 3q3 0 3 -3t-3 -3q-4 0 -4 3zM603 691 q-2 1 2 1q4 1 6 -1q2 -1 -3 -2q-3 0 -5 2z" />
<glyph unicode="&#xe000;" horiz-adv-x="590" d="M0 590h590v-590h-590v590z" />
<glyph unicode="&#xfb01;" horiz-adv-x="1269" d="M686 35q1 5 3 20q-2 4 -3 11q3 23 25 30q12 4 38 1q28 -2 37 -1q5 5 14 11q11 1 36 3l2 8q7 -1 8 -1q9 -1 13 -2h2l16 6q11 10 14 70q1 41 3 82q3 11 8 31q-2 15 -3 49q4 16 3 20l-5 11q2 18 2 52q-3 6 -8 17h-5l-9 19q-9 6 -23 6q-9 0 -29 -3t-28 -3q-11 1 -66 11 q-7 0 -17 3q-1 7 -6 20q-4 6 -9.5 13.5t-3.5 16.5q0 5 16 17v5q53 16 67 14q6 -5 19 -11q15 1 39 0q1 0 10 -5q6 -4 15 -3q18 1 30 11q-1 4 8 11q5 1 11 1q20 0 51 -9q28 -8 35 -14q1 -5 3 -11q4 -1 11 -3q1 -5 3 -11h5l9 -17h2q0 1 -5 -14q2 -7 3 -25l-9 -27q8 -5 23 -17 q-1 0 0 -19l-9 -3q2 -12 0 -33q-1 -4 -5 -4l-6 1v-11q1 0 14 3q1 -4 8 -11q0 -2 -5 -25q7 -4 3 -17h-6q-3 -5 -8 -11q1 -8 8 -28q-6 -4 -6 -5q4 -2 9 -6q-3 -15 -11 -50q10 -8 22 -27q0 -4 -3 -7.5l-3 -3.5q-4 -18 9 -33q1 -2 13 -6q7 -2 20 -3l3 -8q1 0 2 8h28q2 -5 3 -5 q5 1 14 2q-3 -5 -6 -13q0 -4 3 -17q5 4 16 14l-2 11q2 1 5 5q8 -1 25 -8q2 -4 6 -8q10 0 30 -6q10 -5 19 -29t6 -40l-19 -25q-18 -19 -36 -22q-18 2 -56 3q-7 -1 -30 -5t-33 -3q-5 0 -21.5 3t-25.5 2q-14 -3 -17 -3q-8 4 -19 9q-27 4 -72 5q-103 3 -100 3l-3 5 q-17 -2 -52 -2q-10 1 -45 14q-4 -1 -13 2v9q-4 2 -9 5zM847 692q0 33 3 41q1 4 9 7t10 6q3 10 8 25q13 0 36 3l3 6q16 10 30 11q6 0 21 -8t18 -12q2 -8 8 -19q7 -2 20 -8q2 -5 8 -14q8 -5 20 -17q4 -10 1 -31l-4 -32h-20q-1 -1 -7 -8.5t-6 -8.5q3 -6 2 -14q1 0 6 -3 q-2 -3 -3 -11q-26 -2 -22 -3q-1 1 -20 7q-15 4 -24 2v-6h-11q0 -1 -3 -5v-3q-6 -1 -10 1.5t-7 3.5q-13 0 -36 6q-2 6 -8 19q-8 8 -19 25q-3 8 -3 40zM1118 156q0 2 3 4t0 2h3q19 3 19 -6q0 -3 -8 -2q-17 -3 -17 2zM17 61q0 4 3 36q21 6 31 5q37 -2 44 -5q1 -1 3.5 -5t4.5 -3 l9 11q4 -1 13 0q3 5 6 11q4 1 8 1q6 0 16 -3.5t15 -3.5q5 2 14 6q-5 7 -3 8q6 1 16 3q6 18 0 36q18 15 17 25q-5 8 -11 22q1 10 0 30l-6 11q0 9 7 26.5t7 23.5q0 2 -2 27q-1 20 2 20q-2 9 -3 6q3 37 3 36l-3 3q-1 5 -5 19q-4 3 -8 8q-1 3 2 22h6q-1 -3 -6 17q1 4 0 8 q-6 2 -16 6q-4 4 -11 8q-21 -3 -58 0l-6 8q0 1 -33 -2v-3q-19 -1 -33 8l-11 14v11q-6 5 -12 14v17q15 9 45 22q15 -2 44 0q5 5 14 11q-3 -1 22 -3q20 -2 50 3l5 25q-2 8 -2 27l11 14q1 9 5 31q4 5 9 14q-3 5 -3 19l5 3q3 4 20 11q3 4 8 8q3 -1 8 0q4 2 8.5 13t12.5 11 q5 0 11.5 8t9.5 10v2q7 3 21.5 2t22.5 1q8 6 22 14q7 2 58 5l14 6q4 0 10 -2.5t7 -3.5q13 1 39 -2q9 -8 25 -17q6 1 16 0q5 -9 14 -22q6 -1 17 -6q4 -4 13 -9.5t23 -9.5q-2 -6 -6 -19l42 -36q-1 -3 0 -9h-28q6 -28 5 -33l-5 -3v-8q-8 -2 -22 -8q-4 -3 -11 -11v-9 q-6 -2 -14 -8q0 -4 -3 -9.5t-26.5 -14t-31.5 -6.5l-14 8q-1 -5 0 -14q4 -2 8 -5q5 -9 2 -27q-4 -18 -14 -19q-3 0 -10 -1q-2 -4 -5 -9q-14 -6 -34 -5h-36l-5 -6q-9 -2 -23 0q-21 3 -24 3q-4 -2 -8 -6v-19q-7 1 -20 0l-22 -19q4 -5 8 -11q-1 -10 -2 -6q2 -2 2 -8l-5 -3 q1 -6 0 -19l-6 -3q-1 -6 -5 -22h-3q-2 -1 6 -11q11 -23 11 -31q0 -1 -3.5 -8.5t-2.5 -13.5l15 -15t10 -16q0 -3 -3 -5q-3 -22 -8 -53l-14 -27h-3q-1 -4 0 -11l28 -34q10 5 33 3v-8h6q4 -6 14 -14h2v-3q9 -2 32 3q27 5 29 6q7 0 16.5 -4t11.5 -5q5 1 14 0q3 -6 11 -16h5 l14 -20q1 -7 -4 -14t-10 -13q1 -3 0 -9q-3 -2 -8 -5q-1 -6 -5 -17h-6q-4 -5 -11 -11q-8 0 -22 -3q-4 -4 -9 -8q-4 0 -11.5 5.5t-10.5 5.5q-9 -3 -25 -5l-8 5q-10 2 -30 -1q-24 -4 -28 -4q-9 -1 -25.5 2t-24.5 3q-19 0 -30 -3q-6 -4 -14 -8q-13 -2 -33 3q-6 4 -14 8 q-13 1 -37 -2q-28 -3 -39 -3q-12 0 -21 2q-5 5 -14 11q-8 0 -25 3q-2 4 -5 8q-5 1 -11 3v9q-5 6 -12 19zM322 645q3 -20 8 -58q3 -1 9 0l2 8q5 1 14 0q6 -6 17 -14q6 1 16 0l8 -4t9 -1q3 3 11 8q11 3 15.5 -0.5t10 -6t18.5 -4.5q4 2 8 7t4 11q0 12 -15 30.5t-16 23.5 q-1 4 6 28q-6 0 -17 2q-2 4 -6 9q-26 16 -47 11q-8 -2 -15 -18l-10 -24q-10 0 -30 -2v-6z" />
<glyph unicode="&#xfb02;" horiz-adv-x="1305" d="M675 81q13 31 15.5 34t59.5 12.5t71 7.5l6 -6q4 2 11 3q2 0 18 -5q13 -3 22 -1q5 2 13.5 16.5t14.5 17.5h2v20q-1 1 -5 2v31q-1 3 -5 19q-4 12 -4 21l6 8q-1 9 0 28q4 8 8 20q-2 8 0 28l6 3q2 9 2 21q0 14 -3.5 39.5t-4.5 34.5q-1 47 6 73q6 12 3 11l-9 31q-1 12 5 22.5 t7 11.5v34q-2 0 -6 2q1 13 0 37q-5 5 -11 14v5q-1 2 -9 6l-8 6l-9.5 7.5t-24.5 14.5q-5 1 -17 -5t-14 -6q-16 -4 -28 -3l-8 6q-15 -3 -39 -6q-18 0 -38 11t-27 23q0 4 -3 14q-1 3 -3 8q2 16 20 26v5q4 1 14 3q29 11 45 8l6 -5q14 -4 39 0q4 2 10 4.5t12 0.5q2 0 9.5 -7 t13.5 -7l3 6h8q4 7 17 14q5 1 26.5 -5t26 -10l11.5 -10q11 -2 18 4.5t8 6.5q7 2 16 -1q6 -2 12 -5q-1 -5 0 -14q5 -4 11 -11q6 -11 0 -39q7 -3 23 -9q-1 -1 0 -8q-6 0 -17 -3l-14 -17q12 -26 14 -42q-2 -4 -3 -14l3 -5q-6 -10 -12 -23q0 -1 3.5 -8.5t3.5 -10.5t-1 -3 q-7 -5 -3 -20q8 -6 17 -14q1 -5 6 -17q-5 -2 -14 -6q9 -37 5 -67q-4 -7 -8 -17q1 -12 0 -36l-3 -3.5t-3 -7.5q5 -4 11 -12v-11l6 -3v-11q7 -11 17 -34q-1 -3 -3 -8q-5 -1 -14 -6q-1 -19 3 -50q5 -2 14 -6q5 -8 17 -22q5 -1 11 -6v-20v-5q7 -12 45 -45q0 -4 3 -8q8 -4 18 -4 q8 0 24 2.5t25 2.5q8 0 14 -1q9 -6 20 -12q10 -1 25 -2q4 -9 8 -23v-14q6 -3 12 -8q1 -4 0 -22q-2 -18 -3 -21q-8 -3 -23 -11q-2 -4 -8 -11q-23 -14 -79 -14q-6 0 -24 3t-26 3q-3 -1 -17 -4t-22 -2l-9 6q-10 -1 -31 0q-9 2 -19 5q-17 -4 -59 -5l-12 5q-26 5 -58 -3 q-78 -16 -130 -8l-30 14q-11 3 -26 11q-13 19 -3 56zM1256 59q1 7 6 20q4 -1 9 0q2 4 8 11q3 -14 6 -31q-2 -1 -6 -8q-17 2 -14 2q-4 3 -9 6zM17 61q0 4 3 36q21 6 31 5q37 -2 44 -5q1 -1 3.5 -5t4.5 -3l9 11q4 -1 13 0q3 5 6 11q4 1 8 1q6 0 16 -3.5t15 -3.5q5 2 14 6 q-5 7 -3 8q6 1 16 3q6 18 0 36q18 15 17 25q-5 8 -11 22q1 10 0 30l-6 11q0 9 7 26.5t7 23.5q0 2 -2 27q-1 20 2 20q-2 9 -3 6q3 37 3 36l-3 3q-1 5 -5 19q-4 3 -8 8q-1 3 2 22h6q-1 -3 -6 17q1 4 0 8q-6 2 -16 6q-4 4 -11 8q-21 -3 -58 0l-6 8q0 1 -33 -2v-3q-19 -1 -33 8 l-11 14v11q-6 5 -12 14v17q15 9 45 22q15 -2 44 0q5 5 14 11q-3 -1 22 -3q20 -2 50 3l5 25q-2 8 -2 27l11 14q1 9 5 31q4 5 9 14q-3 5 -3 19l5 3q3 4 20 11q3 4 8 8q3 -1 8 0q4 2 8.5 13t12.5 11q5 0 11.5 8t9.5 10v2q7 3 21.5 2t22.5 1q8 6 22 14q7 2 58 5l14 6 q4 0 10 -2.5t7 -3.5q13 1 39 -2q9 -8 25 -17q6 1 16 0q5 -9 14 -22q6 -1 17 -6q4 -4 13 -9.5t23 -9.5q-2 -6 -6 -19l42 -36q-1 -3 0 -9h-28q6 -28 5 -33l-5 -3v-8q-8 -2 -22 -8q-4 -3 -11 -11v-9q-6 -2 -14 -8q0 -4 -3 -9.5t-26.5 -14t-31.5 -6.5l-14 8q-1 -5 0 -14 q4 -2 8 -5q5 -9 2 -27q-4 -18 -14 -19q-3 0 -10 -1q-2 -4 -5 -9q-14 -6 -34 -5h-36l-5 -6q-9 -2 -23 0q-21 3 -24 3q-4 -2 -8 -6v-19q-7 1 -20 0l-22 -19q4 -5 8 -11q-1 -10 -2 -6q2 -2 2 -8l-5 -3q1 -6 0 -19l-6 -3q-1 -6 -5 -22h-3q-2 -1 6 -11q11 -23 11 -31 q0 -1 -3.5 -8.5t-2.5 -13.5l15 -15t10 -16q0 -3 -3 -5q-3 -22 -8 -53l-14 -27h-3q-1 -4 0 -11l28 -34q10 5 33 3v-8h6q4 -6 14 -14h2v-3q9 -2 32 3q27 5 29 6q7 0 16.5 -4t11.5 -5q5 1 14 0q3 -6 11 -16h5l14 -20q1 -7 -4 -14t-10 -13q1 -3 0 -9q-3 -2 -8 -5q-1 -6 -5 -17 h-6q-4 -5 -11 -11q-8 0 -22 -3q-4 -4 -9 -8q-4 0 -11.5 5.5t-10.5 5.5q-9 -3 -25 -5l-8 5q-10 2 -30 -1q-24 -4 -28 -4q-9 -1 -25.5 2t-24.5 3q-19 0 -30 -3q-6 -4 -14 -8q-13 -2 -33 3q-6 4 -14 8q-13 1 -37 -2q-28 -3 -39 -3q-12 0 -21 2q-5 5 -14 11q-8 0 -25 3 q-2 4 -5 8q-5 1 -11 3v9q-5 6 -12 19zM322 645q3 -20 8 -58q3 -1 9 0l2 8q5 1 14 0q6 -6 17 -14q6 1 16 0l8 -4t9 -1q3 3 11 8q11 3 15.5 -0.5t10 -6t18.5 -4.5q4 2 8 7t4 11q0 12 -15 30.5t-16 23.5q-1 4 6 28q-6 0 -17 2q-2 4 -6 9q-26 16 -47 11q-8 -2 -15 -18l-10 -24 q-10 0 -30 -2v-6z" />
<glyph unicode="&#xfb03;" horiz-adv-x="1924" d="M1341 35q1 5 3 20q-2 4 -3 11q3 23 25 30q12 4 38 1q28 -2 37 -1q5 5 14 11q11 1 36 3l2 8q7 -1 8 -1q9 -1 13 -2h2l16 6q11 10 14 70q1 41 3 82q3 11 8 31q-2 15 -3 49q4 16 3 20l-5 11q2 18 2 52q-3 6 -8 17h-5l-9 19q-9 6 -23 6q-9 0 -29 -3t-28 -3q-11 1 -66 11 q-7 0 -17 3q-1 7 -6 20q-4 6 -9.5 13.5t-3.5 16.5q0 5 16 17v5q53 16 67 14q6 -5 19 -11q15 1 39 0q1 0 10 -5q6 -4 15 -3q18 1 30 11q-1 4 8 11q5 1 11 1q20 0 51 -9q28 -8 35 -14q1 -5 3 -11q4 -1 11 -3q1 -5 3 -11h5l9 -17h2q0 1 -5 -14q2 -7 3 -25l-9 -27q8 -5 23 -17 q-1 0 0 -19l-9 -3q2 -12 0 -33q-1 -4 -5 -4l-6 1v-11q1 0 14 3q1 -4 8 -11q0 -2 -5 -25q7 -4 3 -17h-6q-3 -5 -8 -11q1 -8 8 -28q-6 -4 -6 -5q4 -2 9 -6q-3 -15 -11 -50q10 -8 22 -27q0 -4 -3 -7.5l-3 -3.5q-4 -18 9 -33q1 -2 13 -6q7 -2 20 -3l3 -8q1 0 2 8h28q2 -5 3 -5 q5 1 14 2q-3 -5 -6 -13q0 -4 3 -17q5 4 16 14l-2 11q2 1 5 5q8 -1 25 -8q2 -4 6 -8q10 0 30 -6q10 -5 19 -29t6 -40l-19 -25q-18 -19 -36 -22q-18 2 -56 3q-7 -1 -30 -5t-33 -3q-5 0 -21.5 3t-25.5 2q-14 -3 -17 -3q-8 4 -19 9q-27 4 -72 5q-103 3 -100 3l-3 5 q-17 -2 -52 -2q-10 1 -45 14q-4 -1 -13 2v9q-4 2 -9 5zM1502 692q0 33 3 41q1 4 9 7t10 6q3 10 8 25q13 0 36 3l3 6q16 10 30 11q6 0 21 -8t18 -12q2 -8 8 -19q7 -2 20 -8q2 -5 8 -14q8 -5 20 -17q4 -10 1 -31l-4 -32h-20q-1 -1 -7 -8.5t-6 -8.5q3 -6 2 -14q1 0 6 -3 q-2 -3 -3 -11q-26 -2 -22 -3q-1 1 -20 7q-15 4 -24 2v-6h-11q0 -1 -3 -5v-3q-6 -1 -10 1.5t-7 3.5q-13 0 -36 6q-2 6 -8 19q-8 8 -19 25q-3 8 -3 40zM1773 156q0 2 3 4t0 2h3q19 3 19 -6q0 -3 -8 -2q-17 -3 -17 2zM672 61q0 4 3 36q21 6 31 5q37 -2 44 -5q1 -1 3.5 -5 t4.5 -3l9 11q4 -1 13 0q3 5 6 11q4 1 8 1q6 0 16 -3.5t15 -3.5q5 2 14 6q-5 7 -3 8q6 1 16 3q6 18 0 36q18 15 17 25q-5 8 -11 22q1 10 0 30l-6 11q0 9 7 26.5t7 23.5q0 2 -2 27q-1 20 2 20q-2 9 -3 6q3 37 3 36l-3 3q-1 5 -5 19q-4 3 -8 8q-1 3 2 22h6q-1 -3 -6 17q1 4 0 8 q-6 2 -16 6q-4 4 -11 8q-21 -3 -58 0l-6 8q0 1 -33 -2v-3q-19 -1 -33 8l-11 14v11q-6 5 -12 14v17q15 9 45 22q15 -2 44 0q5 5 14 11q-3 -1 22 -3q20 -2 50 3l5 25q-2 8 -2 27l11 14q1 9 5 31q4 5 9 14q-3 5 -3 19l5 3q3 4 20 11q3 4 8 8q3 -1 8 0q4 2 8.5 13t12.5 11 q5 0 11.5 8t9.5 10v2q7 3 21.5 2t22.5 1q8 6 22 14q7 2 58 5l14 6q4 0 10 -2.5t7 -3.5q13 1 39 -2q9 -8 25 -17q6 1 16 0q5 -9 14 -22q6 -1 17 -6q4 -4 13 -9.5t23 -9.5q-2 -6 -6 -19l42 -36q-1 -3 0 -9h-28q6 -28 5 -33l-5 -3v-8q-8 -2 -22 -8q-4 -3 -11 -11v-9 q-6 -2 -14 -8q0 -4 -3 -9.5t-26.5 -14t-31.5 -6.5l-14 8q-1 -5 0 -14q4 -2 8 -5q5 -9 2 -27q-4 -18 -14 -19q-3 0 -10 -1q-2 -4 -5 -9q-14 -6 -34 -5h-36l-5 -6q-9 -2 -23 0q-21 3 -24 3q-4 -2 -8 -6v-19q-7 1 -20 0l-22 -19q4 -5 8 -11q-1 -10 -2 -6q2 -2 2 -8l-5 -3 q1 -6 0 -19l-6 -3q-1 -6 -5 -22h-3q-2 -1 6 -11q11 -23 11 -31q0 -1 -3.5 -8.5t-2.5 -13.5l15 -15t10 -16q0 -3 -3 -5q-3 -22 -8 -53l-14 -27h-3q-1 -4 0 -11l28 -34q10 5 33 3v-8h6q4 -6 14 -14h2v-3q9 -2 32 3q27 5 29 6q7 0 16.5 -4t11.5 -5q5 1 14 0q3 -6 11 -16h5 l14 -20q1 -7 -4 -14t-10 -13q1 -3 0 -9q-3 -2 -8 -5q-1 -6 -5 -17h-6q-4 -5 -11 -11q-8 0 -22 -3q-4 -4 -9 -8q-4 0 -11.5 5.5t-10.5 5.5q-9 -3 -25 -5l-8 5q-10 2 -30 -1q-24 -4 -28 -4q-9 -1 -25.5 2t-24.5 3q-19 0 -30 -3q-6 -4 -14 -8q-13 -2 -33 3q-6 4 -14 8 q-13 1 -37 -2q-28 -3 -39 -3q-12 0 -21 2q-5 5 -14 11q-8 0 -25 3q-2 4 -5 8q-5 1 -11 3v9q-5 6 -12 19zM977 645q3 -20 8 -58q3 -1 9 0l2 8q5 1 14 0q6 -6 17 -14q6 1 16 0l8 -4t9 -1q3 3 11 8q11 3 15.5 -0.5t10 -6t18.5 -4.5q4 2 8 7t4 11q0 12 -15 30.5t-16 23.5 q-1 4 6 28q-6 0 -17 2q-2 4 -6 9q-26 16 -47 11q-8 -2 -15 -18l-10 -24q-10 0 -30 -2v-6zM17 61q0 4 3 36q21 6 31 5q37 -2 44 -5q1 -1 3.5 -5t4.5 -3l9 11q4 -1 13 0q3 5 6 11q4 1 8 1q6 0 16 -3.5t15 -3.5q5 2 14 6q-5 7 -3 8q6 1 16 3q6 18 0 36q18 15 17 25q-5 8 -11 22 q1 10 0 30l-6 11q0 9 7 26.5t7 23.5q0 2 -2 27q-1 20 2 20q-2 9 -3 6q3 37 3 36l-3 3q-1 5 -5 19q-4 3 -8 8q-1 3 2 22h6q-1 -3 -6 17q1 4 0 8q-6 2 -16 6q-4 4 -11 8q-21 -3 -58 0l-6 8q0 1 -33 -2v-3q-19 -1 -33 8l-11 14v11q-6 5 -12 14v17q15 9 45 22q15 -2 44 0 q5 5 14 11q-3 -1 22 -3q20 -2 50 3l5 25q-2 8 -2 27l11 14q1 9 5 31q4 5 9 14q-3 5 -3 19l5 3q3 4 20 11q3 4 8 8q3 -1 8 0q4 2 8.5 13t12.5 11q5 0 11.5 8t9.5 10v2q7 3 21.5 2t22.5 1q8 6 22 14q7 2 58 5l14 6q4 0 10 -2.5t7 -3.5q13 1 39 -2q9 -8 25 -17q6 1 16 0 q5 -9 14 -22q6 -1 17 -6q4 -4 13 -9.5t23 -9.5q-2 -6 -6 -19l42 -36q-1 -3 0 -9h-28q6 -28 5 -33l-5 -3v-8q-8 -2 -22 -8q-4 -3 -11 -11v-9q-6 -2 -14 -8q0 -4 -3 -9.5t-26.5 -14t-31.5 -6.5l-14 8q-1 -5 0 -14q4 -2 8 -5q5 -9 2 -27q-4 -18 -14 -19q-3 0 -10 -1 q-2 -4 -5 -9q-14 -6 -34 -5h-36l-5 -6q-9 -2 -23 0q-21 3 -24 3q-4 -2 -8 -6v-19q-7 1 -20 0l-22 -19q4 -5 8 -11q-1 -10 -2 -6q2 -2 2 -8l-5 -3q1 -6 0 -19l-6 -3q-1 -6 -5 -22h-3q-2 -1 6 -11q11 -23 11 -31q0 -1 -3.5 -8.5t-2.5 -13.5l15 -15t10 -16q0 -3 -3 -5 q-3 -22 -8 -53l-14 -27h-3q-1 -4 0 -11l28 -34q10 5 33 3v-8h6q4 -6 14 -14h2v-3q9 -2 32 3q27 5 29 6q7 0 16.5 -4t11.5 -5q5 1 14 0q3 -6 11 -16h5l14 -20q1 -7 -4 -14t-10 -13q1 -3 0 -9q-3 -2 -8 -5q-1 -6 -5 -17h-6q-4 -5 -11 -11q-8 0 -22 -3q-4 -4 -9 -8 q-4 0 -11.5 5.5t-10.5 5.5q-9 -3 -25 -5l-8 5q-10 2 -30 -1q-24 -4 -28 -4q-9 -1 -25.5 2t-24.5 3q-19 0 -30 -3q-6 -4 -14 -8q-13 -2 -33 3q-6 4 -14 8q-13 1 -37 -2q-28 -3 -39 -3q-12 0 -21 2q-5 5 -14 11q-8 0 -25 3q-2 4 -5 8q-5 1 -11 3v9q-5 6 -12 19zM322 645 q3 -20 8 -58q3 -1 9 0l2 8q5 1 14 0q6 -6 17 -14q6 1 16 0l8 -4t9 -1q3 3 11 8q11 3 15.5 -0.5t10 -6t18.5 -4.5q4 2 8 7t4 11q0 12 -15 30.5t-16 23.5q-1 4 6 28q-6 0 -17 2q-2 4 -6 9q-26 16 -47 11q-8 -2 -15 -18l-10 -24q-10 0 -30 -2v-6z" />
<glyph unicode="&#xfb04;" horiz-adv-x="1960" d="M1330 81q13 31 15.5 34t59.5 12.5t71 7.5l6 -6q4 2 11 3q2 0 18 -5q13 -3 22 -1q5 2 13.5 16.5t14.5 17.5h2v20q-1 1 -5 2v31q-1 3 -5 19q-4 12 -4 21l6 8q-1 9 0 28q4 8 8 20q-2 8 0 28l6 3q2 9 2 21q0 14 -3.5 39.5t-4.5 34.5q-1 47 6 73q6 12 3 11l-9 31q-1 12 5 22.5 t7 11.5v34q-2 0 -6 2q1 13 0 37q-5 5 -11 14v5q-1 2 -9 6l-8 6l-9.5 7.5t-24.5 14.5q-5 1 -17 -5t-14 -6q-16 -4 -28 -3l-8 6q-15 -3 -39 -6q-18 0 -38 11t-27 23q0 4 -3 14q-1 3 -3 8q2 16 20 26v5q4 1 14 3q29 11 45 8l6 -5q14 -4 39 0q4 2 10 4.5t12 0.5q2 0 9.5 -7 t13.5 -7l3 6h8q4 7 17 14q5 1 26.5 -5t26 -10l11.5 -10q11 -2 18 4.5t8 6.5q7 2 16 -1q6 -2 12 -5q-1 -5 0 -14q5 -4 11 -11q6 -11 0 -39q7 -3 23 -9q-1 -1 0 -8q-6 0 -17 -3l-14 -17q12 -26 14 -42q-2 -4 -3 -14l3 -5q-6 -10 -12 -23q0 -1 3.5 -8.5t3.5 -10.5t-1 -3 q-7 -5 -3 -20q8 -6 17 -14q1 -5 6 -17q-5 -2 -14 -6q9 -37 5 -67q-4 -7 -8 -17q1 -12 0 -36l-3 -3.5t-3 -7.5q5 -4 11 -12v-11l6 -3v-11q7 -11 17 -34q-1 -3 -3 -8q-5 -1 -14 -6q-1 -19 3 -50q5 -2 14 -6q5 -8 17 -22q5 -1 11 -6v-20v-5q7 -12 45 -45q0 -4 3 -8q8 -4 18 -4 q8 0 24 2.5t25 2.5q8 0 14 -1q9 -6 20 -12q10 -1 25 -2q4 -9 8 -23v-14q6 -3 12 -8q1 -4 0 -22q-2 -18 -3 -21q-8 -3 -23 -11q-2 -4 -8 -11q-23 -14 -79 -14q-6 0 -24 3t-26 3q-3 -1 -17 -4t-22 -2l-9 6q-10 -1 -31 0q-9 2 -19 5q-17 -4 -59 -5l-12 5q-26 5 -58 -3 q-78 -16 -130 -8l-30 14q-11 3 -26 11q-13 19 -3 56zM1911 59q1 7 6 20q4 -1 9 0q2 4 8 11q3 -14 6 -31q-2 -1 -6 -8q-17 2 -14 2q-4 3 -9 6zM672 61q0 4 3 36q21 6 31 5q37 -2 44 -5q1 -1 3.5 -5t4.5 -3l9 11q4 -1 13 0q3 5 6 11q4 1 8 1q6 0 16 -3.5t15 -3.5q5 2 14 6 q-5 7 -3 8q6 1 16 3q6 18 0 36q18 15 17 25q-5 8 -11 22q1 10 0 30l-6 11q0 9 7 26.5t7 23.5q0 2 -2 27q-1 20 2 20q-2 9 -3 6q3 37 3 36l-3 3q-1 5 -5 19q-4 3 -8 8q-1 3 2 22h6q-1 -3 -6 17q1 4 0 8q-6 2 -16 6q-4 4 -11 8q-21 -3 -58 0l-6 8q0 1 -33 -2v-3q-19 -1 -33 8 l-11 14v11q-6 5 -12 14v17q15 9 45 22q15 -2 44 0q5 5 14 11q-3 -1 22 -3q20 -2 50 3l5 25q-2 8 -2 27l11 14q1 9 5 31q4 5 9 14q-3 5 -3 19l5 3q3 4 20 11q3 4 8 8q3 -1 8 0q4 2 8.5 13t12.5 11q5 0 11.5 8t9.5 10v2q7 3 21.5 2t22.5 1q8 6 22 14q7 2 58 5l14 6 q4 0 10 -2.5t7 -3.5q13 1 39 -2q9 -8 25 -17q6 1 16 0q5 -9 14 -22q6 -1 17 -6q4 -4 13 -9.5t23 -9.5q-2 -6 -6 -19l42 -36q-1 -3 0 -9h-28q6 -28 5 -33l-5 -3v-8q-8 -2 -22 -8q-4 -3 -11 -11v-9q-6 -2 -14 -8q0 -4 -3 -9.5t-26.5 -14t-31.5 -6.5l-14 8q-1 -5 0 -14 q4 -2 8 -5q5 -9 2 -27q-4 -18 -14 -19q-3 0 -10 -1q-2 -4 -5 -9q-14 -6 -34 -5h-36l-5 -6q-9 -2 -23 0q-21 3 -24 3q-4 -2 -8 -6v-19q-7 1 -20 0l-22 -19q4 -5 8 -11q-1 -10 -2 -6q2 -2 2 -8l-5 -3q1 -6 0 -19l-6 -3q-1 -6 -5 -22h-3q-2 -1 6 -11q11 -23 11 -31 q0 -1 -3.5 -8.5t-2.5 -13.5l15 -15t10 -16q0 -3 -3 -5q-3 -22 -8 -53l-14 -27h-3q-1 -4 0 -11l28 -34q10 5 33 3v-8h6q4 -6 14 -14h2v-3q9 -2 32 3q27 5 29 6q7 0 16.5 -4t11.5 -5q5 1 14 0q3 -6 11 -16h5l14 -20q1 -7 -4 -14t-10 -13q1 -3 0 -9q-3 -2 -8 -5q-1 -6 -5 -17 h-6q-4 -5 -11 -11q-8 0 -22 -3q-4 -4 -9 -8q-4 0 -11.5 5.5t-10.5 5.5q-9 -3 -25 -5l-8 5q-10 2 -30 -1q-24 -4 -28 -4q-9 -1 -25.5 2t-24.5 3q-19 0 -30 -3q-6 -4 -14 -8q-13 -2 -33 3q-6 4 -14 8q-13 1 -37 -2q-28 -3 -39 -3q-12 0 -21 2q-5 5 -14 11q-8 0 -25 3 q-2 4 -5 8q-5 1 -11 3v9q-5 6 -12 19zM977 645q3 -20 8 -58q3 -1 9 0l2 8q5 1 14 0q6 -6 17 -14q6 1 16 0l8 -4t9 -1q3 3 11 8q11 3 15.5 -0.5t10 -6t18.5 -4.5q4 2 8 7t4 11q0 12 -15 30.5t-16 23.5q-1 4 6 28q-6 0 -17 2q-2 4 -6 9q-26 16 -47 11q-8 -2 -15 -18l-10 -24 q-10 0 -30 -2v-6zM17 61q0 4 3 36q21 6 31 5q37 -2 44 -5q1 -1 3.5 -5t4.5 -3l9 11q4 -1 13 0q3 5 6 11q4 1 8 1q6 0 16 -3.5t15 -3.5q5 2 14 6q-5 7 -3 8q6 1 16 3q6 18 0 36q18 15 17 25q-5 8 -11 22q1 10 0 30l-6 11q0 9 7 26.5t7 23.5q0 2 -2 27q-1 20 2 20q-2 9 -3 6 q3 37 3 36l-3 3q-1 5 -5 19q-4 3 -8 8q-1 3 2 22h6q-1 -3 -6 17q1 4 0 8q-6 2 -16 6q-4 4 -11 8q-21 -3 -58 0l-6 8q0 1 -33 -2v-3q-19 -1 -33 8l-11 14v11q-6 5 -12 14v17q15 9 45 22q15 -2 44 0q5 5 14 11q-3 -1 22 -3q20 -2 50 3l5 25q-2 8 -2 27l11 14q1 9 5 31 q4 5 9 14q-3 5 -3 19l5 3q3 4 20 11q3 4 8 8q3 -1 8 0q4 2 8.5 13t12.5 11q5 0 11.5 8t9.5 10v2q7 3 21.5 2t22.5 1q8 6 22 14q7 2 58 5l14 6q4 0 10 -2.5t7 -3.5q13 1 39 -2q9 -8 25 -17q6 1 16 0q5 -9 14 -22q6 -1 17 -6q4 -4 13 -9.5t23 -9.5q-2 -6 -6 -19l42 -36 q-1 -3 0 -9h-28q6 -28 5 -33l-5 -3v-8q-8 -2 -22 -8q-4 -3 -11 -11v-9q-6 -2 -14 -8q0 -4 -3 -9.5t-26.5 -14t-31.5 -6.5l-14 8q-1 -5 0 -14q4 -2 8 -5q5 -9 2 -27q-4 -18 -14 -19q-3 0 -10 -1q-2 -4 -5 -9q-14 -6 -34 -5h-36l-5 -6q-9 -2 -23 0q-21 3 -24 3q-4 -2 -8 -6 v-19q-7 1 -20 0l-22 -19q4 -5 8 -11q-1 -10 -2 -6q2 -2 2 -8l-5 -3q1 -6 0 -19l-6 -3q-1 -6 -5 -22h-3q-2 -1 6 -11q11 -23 11 -31q0 -1 -3.5 -8.5t-2.5 -13.5l15 -15t10 -16q0 -3 -3 -5q-3 -22 -8 -53l-14 -27h-3q-1 -4 0 -11l28 -34q10 5 33 3v-8h6q4 -6 14 -14h2v-3 q9 -2 32 3q27 5 29 6q7 0 16.5 -4t11.5 -5q5 1 14 0q3 -6 11 -16h5l14 -20q1 -7 -4 -14t-10 -13q1 -3 0 -9q-3 -2 -8 -5q-1 -6 -5 -17h-6q-4 -5 -11 -11q-8 0 -22 -3q-4 -4 -9 -8q-4 0 -11.5 5.5t-10.5 5.5q-9 -3 -25 -5l-8 5q-10 2 -30 -1q-24 -4 -28 -4q-9 -1 -25.5 2 t-24.5 3q-19 0 -30 -3q-6 -4 -14 -8q-13 -2 -33 3q-6 4 -14 8q-13 1 -37 -2q-28 -3 -39 -3q-12 0 -21 2q-5 5 -14 11q-8 0 -25 3q-2 4 -5 8q-5 1 -11 3v9q-5 6 -12 19zM322 645q3 -20 8 -58q3 -1 9 0l2 8q5 1 14 0q6 -6 17 -14q6 1 16 0l8 -4t9 -1q3 3 11 8q11 3 15.5 -0.5 t10 -6t18.5 -4.5q4 2 8 7t4 11q0 12 -15 30.5t-16 23.5q-1 4 6 28q-6 0 -17 2q-2 4 -6 9q-26 16 -47 11q-8 -2 -15 -18l-10 -24q-10 0 -30 -2v-6z" />
</font>
</defs>
</svg>
