<?xml version="1.0" standalone="no"?>
<!DOCTYPE svg PUBLIC "-//W3C//DTD SVG 1.1//EN" "http://www.w3.org/Graphics/SVG/1.1/DTD/svg11.dtd" >
<svg xmlns="http://www.w3.org/2000/svg">
<metadata>
This is a custom SVG webfont generated by Font Squirrel.
Copyright   : Copyright  1993 by DATA BECKER GmbH
</metadata>
<defs>
<font id="webfont9JS328rg" horiz-adv-x="856" >
<font-face units-per-em="2048" ascent="1638" descent="-410" />
<missing-glyph horiz-adv-x="487" />
<glyph unicode=" "  horiz-adv-x="487" />
<glyph unicode="&#x09;" horiz-adv-x="487" />
<glyph unicode="&#xa0;" horiz-adv-x="487" />
<glyph unicode="!" horiz-adv-x="651" d="M266 86q0 49 43 90q41 39 94 39q90 0 91 -104q0 -47 -45 -84q-45 -35 -93 -35q-90 0 -90 94zM483 285l359 577l94 162q72 115 98 139q45 35 76 35q90 0 90 -88q0 -55 -104 -178l-150 -166l-430 -506z" />
<glyph unicode="&#x22;" horiz-adv-x="808" d="M483 973q231 88 232 190q0 10 -10.5 41t-10.5 41q0 57 43 96q45 41 99 41q82 0 82 -92q0 -119 -158 -219q-70 -47 -264 -127zM852 969q78 33 141 75q94 63 94 115q0 12 -12 39t-12 47q0 53 43 96q41 41 94 41q86 0 86 -77q0 -125 -153 -232q-108 -77 -265 -129l-12 8z " />
<glyph unicode="#" horiz-adv-x="1134" d="M68 422v137h219l53 395h-219v140h239l60 422h141l-59 -422h254l59 422h141l-59 -422h170v-138h-190l-56 -397h189v-137h-207l-60 -422h-141l60 422h-254l-60 -422h-141l59 422h-198zM428 559h252l55 397h-252z" />
<glyph unicode="$" d="M41 -184l154 198q-121 49 -121 181q0 61 41 118q45 59 106 60q63 0 64 -49q0 -51 -37 -64q-6 -2 -80 -2q-49 0 -49 -106q0 -39 100 -107l361 461q-68 117 -68 221q0 156 123 260q115 100 272 100q47 0 107 -12l127 160l22 -18l-110 -150q96 -72 96 -172q0 -49 -37 -92 q-35 -41 -84 -41q-57 0 -57 43q0 53 67.5 59t67.5 66q0 27 -25 57l-45 47l-323 -416q78 -137 78 -237q0 -162 -138 -281q-131 -113 -293 -112q-61 0 -127 10l-165 -201zM258 33q39 -16 76 -17q123 0 217 88q92 86 92 211q0 53 -39 156q-74 -80 -178 -215zM662 801 q0 -61 32 -137q176 199 299 385q-57 10 -80 10q-113 0 -182 -71.5t-69 -186.5z" />
<glyph unicode="%" horiz-adv-x="1304" d="M172 31l1231 1009l22 -30l-1228 -1010zM256 504q0 163 190 356q190 195 355 195q82 0 82 -76q0 -150 -189 -371q-193 -229 -338 -229q-100 0 -100 125zM326 449q0 -12 16 -25q15 -12 31 -12q101 0 289 227q182 221 182 328q0 53 -45 53q-96 0 -287 -238 q-186 -231 -186 -333zM772 109q0 156 186.5 354.5t339.5 198.5q52 0 74 -19q23 -18 23 -70q0 -144 -191 -362q-195 -225 -336 -225q-96 0 -96 123zM844 53q0 -37 41 -37q109 0 291 226q182 223 182 331q0 53 -43 54q-96 0 -287 -238q-184 -230 -184 -336z" />
<glyph unicode="&#x26;" horiz-adv-x="1181" d="M113 188q0 170 200 275q120 65 351 110q141 430 391 431q119 0 119 -127q0 -89 -136 -179q-92 -61 -215 -106q-45 -166 -57 -342q381 385 496 385q80 0 79 -105q0 -37 -30.5 -67.5t-67.5 -30.5q-18 0 -39 17q-18 15 -18 36q0 39 59 45q57 6 58 35q0 35 -50 35 q-72 0 -258 -170q-12 -10 -237 -235q-2 -16 -2 -37q0 -119 61 -119q51 0 152 82q70 57 129 127l24 -19q-98 -113 -159 -161q-102 -78 -209 -78t-138 94q-150 -94 -286 -94q-96 0 -156 49q-61 51 -61 149zM215 88q0 -33 41 -53q31 -16 72 -17q131 0 282 103q0 242 39 409 q-125 -61 -266 -186q-168 -150 -168 -256zM831 629q287 141 287 274q0 27 -8 53q-12 23 -66 23q-76 0 -143 -141q-47 -98 -70 -209z" />
<glyph unicode="'" horiz-adv-x="444" d="M424 1038q0 203 436 355v-29q-76 -25 -145 -74q-92 -66 -92 -121q0 -6 12 -32q10 -23 10 -45q0 -55 -41 -97q-43 -43 -94 -43q-86 0 -86 86z" />
<glyph unicode="(" horiz-adv-x="1101" d="M104 -455q10 25 76 222q154 461 340 755q207 328 551 617q141 117 270 209l164 106l13 -31q-342 -240 -789 -862q-412 -582 -590 -1022z" />
<glyph unicode=")" horiz-adv-x="1101" d="M-297 -434q358 254 799 862q420 580 585 1026l31 -12q-213 -696 -497 -1102q-322 -459 -904 -801z" />
<glyph unicode="*" horiz-adv-x="1060" d="M989 1040q0 27 47 56q41 23 72 22q39 0 98.5 -14t98.5 -14l-127 86q-74 55 -74 122q0 47 31 48q78 0 120 -91l58 -157q18 52 18 153q0 47 27 88q31 47 76 47q39 0 39 -79q0 -55 -62 -111q-23 -23 -76 -102q22 6 105 49q70 35 100 35q25 0 64 -17q41 -20 41 -41 q0 -27 -48 -51q-45 -23 -71 -22q-37 0 -96.5 14t-98.5 14l127 -84q70 -51 70 -127q0 -45 -23 -45q-80 0 -125 90l-61 158q-14 -70 -14 -143q0 -53 -25 -97q-31 -51 -80 -51q-35 0 -35 92q0 49 62 107q63 61 78 100l-107 -51q-76 -37 -102 -37q-29 0 -64 14q-43 19 -43 39z " />
<glyph unicode="+" horiz-adv-x="978" d="M274 535v81h392v385h82v-385h389v-79h-389v-390h-82v388h-392z" />
<glyph unicode="," horiz-adv-x="487" d="M-76 -195q231 94 232 193q0 10 -12.5 34.5t-12.5 45.5q0 51 43 94t96 43q90 0 90 -82q0 -114 -165 -227q-123 -84 -271 -131v30z" />
<glyph unicode="-" horiz-adv-x="608" d="M176 287l98 127h496l-90 -127h-504z" />
<glyph unicode="." horiz-adv-x="487" d="M176 88q0 53 45 86t96 33q41 0 66 -31q20 -27 20 -70q0 -41 -45 -79q-41 -35 -90 -35q-92 0 -92 96z" />
<glyph unicode="/" horiz-adv-x="1181" d="M104 6q127 109 289 266l281 275l876 839h170l-1448 -1380h-168z" />
<glyph unicode="0" d="M113 160q0 176 147 397q137 207 346 358q215 154 393 154q119 0 119 -119q0 -141 -151 -379q-147 -227 -342 -397q-212 -184 -357 -184q-155 0 -155 170zM209 82q0 -66 80 -66q51 0 176 80q172 111 383 381q231 299 231 469q0 90 -84 90q-109 0 -305 -196 q-178 -178 -328 -412q-153 -235 -153 -346z" />
<glyph unicode="1" d="M180 6l438 475l441 471q-322 -211 -742 -432l-12 27q586 334 844 512h33l-387 -524l-385 -529h-230z" />
<glyph unicode="2" d="M-115 10q96 80 332 254l248 170q147 111 276 242q178 187 179 295q0 68 -68 67q-133 0 -305 -137q-176 -145 -176 -274q0 -66 53 -66q127 0 283 275l10 2q14 -4 14 -7q-18 -90 -115 -192q-106 -111 -190 -111q-33 0 -66 33q-31 31 -30 68q0 158 178 303q168 137 332 137 q78 0 121 -47t43 -125q0 -209 -189 -356q-100 -80 -395 -217q-266 -125 -361 -226q160 57 222 58q43 0 127 -31q78 -29 127 -29q57 0 143 129l27 -12q-41 -96 -119 -160q-90 -68 -187 -67q-55 0 -159 37q-111 39 -160 38q-86 0 -178 -73z" />
<glyph unicode="3" d="M-49 115q0 29 24 53q23 23 56 22q47 0 47 -67q0 -27 -37 -33q-39 -6 -39 -22q0 -47 70 -48q123 0 338 183q221 186 221 303q0 28 -25 43q-6 2 -22 2q-37 0 -215 -82l-13 8q0 8 4 12q12 10 78 41q59 25 203 113q94 76 164 156q98 113 98 190q0 47 -67 47q-88 0 -226 -88 q-147 -96 -147 -176q0 -16 16 -39q14 -20 35 -20q113 0 225 172l25 -15q-117 -188 -256 -188q-35 0 -57.5 22.5t-22.5 57.5q0 123 152 219q139 88 266 88q68 0 115 -31q51 -37 51 -102q0 -127 -150 -227q-72 -51 -262 -129q61 -6 102 -33q51 -33 52 -90q0 -190 -242 -338 q-213 -131 -422 -131q-139 0 -139 127z" />
<glyph unicode="4" d="M31 260q399 285 878 782h250q-12 -12 -67 -57q-164 -133 -465 -344q-393 -274 -471 -334q98 10 211 10q59 0 194 -12q137 117 295 275h41q-117 -135 -215 -289l37 -2q57 0 125 18v-33q-74 -23 -185 -16l-149 -250h-240l262 264q-88 14 -243 15q-125 0 -242 -51z" />
<glyph unicode="5" d="M-6 117q0 27 29 51q25 23 53 22q18 0 33 -22q12 -20 12 -41q0 -27 -33 -35q-37 -12 -43 -20q6 -55 72 -56q201 0 434 277q57 68 115 168q70 123 69 184q0 68 -59 68q-145 0 -357 -207l-24 16l405 527q90 -29 172 -29q102 0 197 53l16 -24q-164 -145 -309 -146 q-68 0 -125 17q-135 -162 -209 -271q144 98 240 99q68 0 121 -50q51 -49 51 -120q0 -227 -250 -416q-236 -174 -471 -174q-139 0 -139 129z" />
<glyph unicode="6" d="M147 154q0 176 164 401q150 207 373 360q229 156 403 156q45 0 78 -28.5t33 -73.5q0 -34 -18 -62q-20 -29 -54 -28q-55 0 -55 59q0 25 39 31t39 24q0 45 -57 45q-127 0 -336 -196q-162 -156 -269 -314l129 90q84 51 144 52q55 0 96 -41t41 -99q0 -205 -207 -376 q-197 -166 -405 -166q-68 0 -105 53q-33 45 -33 113zM219 72q0 -55 74 -56q102 0 305 236q203 233 203 340q0 47 -47 47q-129 0 -332 -217q-203 -218 -203 -350z" />
<glyph unicode="7" d="M-109 -176q358 403 787 811l373 356q-164 -84 -240 -84q-49 0 -127 37t-104 37q-61 0 -129 -92h-39l221 268h45l-103 -135q88 35 181 35q40 0 116 -25q70 -23 117 -22.5t90 30.5l76 62h4q8 0 19 -10q-442 -467 -1053 -1268h-234z" />
<glyph unicode="8" d="M86 170q0 135 170 254q121 84 295 143q-23 41 -23 109q0 150 129 272q127 119 281 119q166 0 166 -168q0 -98 -133 -188q-23 -16 -219 -115q41 -100 41 -147q0 -168 -175 -318q-170 -145 -337 -145q-82 0 -140 51q-55 49 -55 133zM184 166q0 -59 39 -103q37 -39 101 -38 q113 0 215 88q106 92 106 202q0 88 -82 222q-150 -51 -250 -134q-129 -108 -129 -237zM662 815q0 -76 67 -186q293 117 293 284q0 53 -28.5 88t-80.5 35q-94 0 -170 -61q-81 -68 -81 -160z" />
<glyph unicode="9" d="M-16 88q0 90 71 90q18 0 37 -18.5t19 -37t-20.5 -36.5t-41.5 -18q-6 0 -8 2l-4 -11q0 -39 51 -39q94 0 178 58q43 27 146 123q233 221 315 372q-199 -164 -299 -163q-141 0 -141 155q0 199 207 357q190 145 397 145q66 0 108 -41q47 -43 48 -102q0 -178 -162 -404 q-156 -217 -371 -368q-229 -162 -403 -162q-51 0 -86 22q-41 27 -41 76zM377 483q0 -45 51 -45q117 0 334 207q213 205 213 322q0 74 -66 73q-111 0 -321.5 -223t-210.5 -334z" />
<glyph unicode=":" horiz-adv-x="569" d="M270 84q0 57 41 92t99 35q86 0 86 -92q0 -46 -43 -86q-45 -41 -91 -41q-39 0 -65.5 26.5t-26.5 65.5zM596 532q0 46 43 86q41 39 88 39q35 0 64 -26q31 -29 30 -60q0 -53 -39 -92q-41 -41 -90 -41q-96 0 -96 94z" />
<glyph unicode=";" horiz-adv-x="569" d="M27 -197q229 104 229 187q0 20 -10 41q-12 25 -13 41q0 55 41 100q41 43 97 43q88 0 88 -74q0 -125 -156 -233q-119 -82 -268 -129zM561 526q0 53 41 92t94 39q88 0 88 -96q0 -47 -38.5 -86t-88.5 -39q-96 0 -96 90z" />
<glyph unicode="&#x3c;" horiz-adv-x="1239" d="M94 455v127l1041 471v-140l-871 -395l871 -395v-139z" />
<glyph unicode="=" horiz-adv-x="978" d="M193 713v84h985v-84h-985zM195 367v82h983v-82h-983z" />
<glyph unicode="&#x3e;" horiz-adv-x="1239" d="M106 -16v139l871 395l-871 395v140l1041 -471v-127z" />
<glyph unicode="?" d="M256 82q0 51 41 92t90 41q96 0 96 -94q0 -51 -41 -92q-39 -39 -96 -39q-90 0 -90 92zM489 281l293 288q385 344 385 543q0 70 -61 70q-117 0 -268 -138q-156 -141 -156 -256q0 -61 53 -61q49 0 113 57q52 46 86 99l20 -19q-96 -170 -237 -170q-86 0 -86 107 q0 133 176 274q168 135 305 135q74 0 121 -59q41 -53 41 -129q0 -186 -137 -322q-88 -88 -301 -196q-169 -86 -320 -246z" />
<glyph unicode="@" horiz-adv-x="2078" d="M301 739q0 315 227.5 542.5t544.5 227.5q283 0 490 -176q215 -184 215 -463q0 -209 -140 -391q-152 -201 -350 -200q-57 0 -94 36.5t-37 92.5l-4 -2q-117 -127 -246 -127q-131 0 -219 100q-82 94 -82 227q0 211 127 381q139 184 346 184q166 0 236 -159l41 127h139 l-147 -502q-37 -138 -37 -166q0 -59 43 -59q125 0 213 166q78 143 78 276q0 236 -168 385q-166 143 -404 143q-270 0 -448 -192q-174 -193 -174 -463t184 -454.5t452 -184.5q144 0 276.5 61.5t221.5 172.5h137q-96 -164 -272 -265q-168 -96 -367 -96q-326 0 -555 225 q-227 223 -227 553zM774 625q0 -84 43 -140q47 -59 129 -59q125 0 219 145q86 132 86 265q0 70 -47 129t-121 59q-131 0 -225 -137q-84 -121 -84 -262z" />
<glyph unicode="A" horiz-adv-x="1388" d="M-39 102q0 57 39 117q41 61 100 62q63 0 64 -64q0 -61 -62 -76q-6 0 -32 11l-27 10q-47 0 -47 -66q0 -37 41 -59q33 -20 72 -21q111 0 249 88q45 27 217 162q-180 217 -180 434q0 131 60 226q70 106 196 106q229 0 344 -336q319 340 406 422q305 287 463 287q2 0 7 -1 t13 -2t17 -1l14 -8l-2 -9q-41 -45 -76 -98l-65 -104q-236 -344 -680 -1049q158 53 223 146l22 -21q-34 -61 -116 -111q-68 -39 -154 -53l-59 -88h-191l60 90l-63 25.5t-46 18.5t-18 7q-61 27 -117 70l-27 21q-287 -258 -512 -258q-53 0 -92 34q-41 35 -41 88zM440 686 q0 -215 170 -391q213 201 355 367q-23 117 -101 212q-86 106 -200 107q-106 0 -168 -98q-56 -84 -56 -197zM637 266q84 -70 119 -86q35 -18 141 -41q84 174 84 385q0 55 -8 88zM981 260q287 397 678 862l133 158q35 39 61 80l-6 8h-12q-114 0 -430 -301q-92 -89 -399 -412 q6 -83 6 -153q0 -39 -31 -242z" />
<glyph unicode="B" horiz-adv-x="1751" d="M-88 145q0 70 43 119t113 49q68 0 67 -59q0 -88 -82 -88q-16 0 -69 27h-11q-25 0 -24 -46q0 -63 94 -100q76 -29 147 -29q238 0 457 183q106 92 340 374q383 471 752 701q-111 68 -207 92q-90 23 -225 23q-125 0 -256 -29q-250 -59 -463 -211q-264 -190 -264 -401v-17 q0 -76 59 -125q55 -43 131 -43q169 0 350 142q152 117 262 286q57 86 113 248h29q-70 -215 -156 -350q-102 -158 -276 -260q-170 -100 -304 -101q-102 0 -172 45q-82 55 -81 152q0 242 266 442q217 166 489 230q129 31 295 31q135 0 238 -29q80 -20 217 -98q98 53 201 90 l8 -29q-115 -53 -176 -92q137 -98 137 -248q0 -160 -148 -256q-115 -76 -295 -100q170 -90 170 -224q0 -219 -213 -346q-184 -113 -413 -112q-121 0 -121 108q0 125 176 217q127 68 289 95v-29q-119 -18 -258 -92q-166 -88 -166 -191q0 -70 94 -69q156 0 315 184 q156 176 156 334q0 61 -55 116q-86 -6 -107 -6q-35 0 -57 17l-4 6l-2 10l4 8q23 16 39 17q25 0 119 -23q2 0 12 3t16 5q135 43 219 162q86 121 86 260q0 49 -45 131q-238 -174 -376 -377q-287 -420 -304 -442q-168 -217 -348 -319q-217 -125 -522 -125q-106 0 -188 28 q-115 43 -115 131z" />
<glyph unicode="C" horiz-adv-x="1425" d="M397 1034q0 217 234 340q188 100 426 101q170 0 305 -52l-10 -18q-180 33 -258 33q-206 0 -412 -105q-244 -121 -244 -307q0 -129 97 -195q68 -47 213 -73q229 246 505 426q348 229 602 229q156 0 156 -108q0 -135 -231 -306q-303 -219 -850 -286q-301 -319 -301 -520 q0 -180 215 -181q184 0 383 119q225 133 225 305q0 51 -47 86q-45 35 -96 35q-307 0 -543 -426l-23 8q74 188 213 314q158 139 347 139q70 0 124 -43q59 -49 60 -117q0 -190 -246 -332q-217 -121 -422 -120q-137 0 -225 71q-92 77 -92 215q0 194 215 455q-137 23 -221 96 q-99 86 -99 217zM954 750q502 55 795 266q233 169 233 276q0 92 -110 92q-197 0 -502 -235q-248 -186 -416 -399z" />
<glyph unicode="D" horiz-adv-x="1546" d="M-98 84q0 55 88 80q51 16 133 16q78 0 186 -26q123 -31 183 -60q248 145 573 557q195 250 471 455q-145 274 -539 274q-276 0 -520 -151q-279 -172 -278 -432q0 -104 92 -168q78 -57 188 -58q299 0 520 271q63 74 140 268h26l-14 -47q-72 -238 -238 -377 q-172 -145 -415 -145q-150 0 -240 69q-100 76 -100 221q0 276 272 449q236 150 533 150q438 0 610 -302q100 86 285 152v-27q-143 -61 -265 -186q29 -115 29 -182q0 -334 -227 -611q-242 -291 -570 -290q-152 0 -317 61q-218 -61 -356 -61q-250 0 -250 100zM-49 84 q0 -70 201 -70q137 0 303 60q-184 74 -342 73q-47 0 -97 -12q-65 -18 -65 -51zM567 66q117 -51 250 -52q309 0 549 273q231 266 231 577q0 66 -26 178q-82 -94 -223 -278q-225 -326 -324 -422q-170 -170 -457 -276z" />
<glyph unicode="E" horiz-adv-x="1304" d="M326 287q0 389 667 524l-47 68q-451 6 -450 266q0 158 153 254q131 82 301 82q113 0 258 -51l-10 -17q-111 29 -190 29q-143 0 -295 -74q-174 -86 -174 -221q0 -131 143 -193q104 -43 256 -43q-2 12 -2 54q0 184 291 333q248 125 459 125q141 0 141 -94q0 -113 -174 -231 q-129 -90 -277 -144q-125 -45 -364 -75v-21q0 -23 18 -41q45 4 72 4q55 0 82 -26l2 -11q-16 -29 -43 -28q-41 0 -131 26q-203 -76 -373 -243q-197 -190 -197 -381q0 -78 84 -115q68 -29 150 -29q205 0 403 101q240 119 240 303q0 51 -51 82q-47 27 -99 26q-276 0 -551 -331 l-22 -11l-8 9v10q0 31 106 135q98 94 142 123q152 102 309 102q88 0 145 -37q68 -43 68 -127q0 -125 -152 -241q-121 -92 -266 -140q-117 -39 -274 -38q-152 0 -242 75q-98 85 -98 232zM1020 913q162 18 260 41q119 31 242 99q98 55 166 114q104 92 104 158q0 68 -92 68 q-168 0 -381 -168q-178 -140 -299 -312z" />
<glyph unicode="F" horiz-adv-x="1181" d="M-72 152q0 61 43 110t105 49q80 0 80 -78q0 -29 -29 -49q-23 -16 -57 -16q-18 0 -43 12.5t-27 12.5q-33 0 -33 -52q0 -65 92 -98q59 -23 146 -23q254 0 481 273q174 207 272 344q-274 -82 -440 -188l-20 30q184 125 491 193q344 377 604 567l15 -27q-272 -227 -422 -499 h24q55 0 88 20l29 29q100 94 143 94h3h4l12 -8v-6q0 -27 -74 -82q-59 -45 -102 -60q-51 -74 -76 -196l-70 -23q23 109 90 203l-90 -20q-377 -678 -956 -678q-283 0 -283 166zM336 950q0 225 266 363q221 117 467 117q143 0 406 -46q272 -47 405 -47q78 0 203 47l12 -22 q-169 -111 -375 -111q-186 0 -506 68q-207 45 -290 45q-182 0 -355 -117q-188 -127 -188 -305q0 -184 219 -184q322 0 576 358q4 4 11 17.5t11 19.5h37q-98 -195 -256 -309q-170 -125 -377 -125q-119 0 -188 55q-78 61 -78 176z" />
<glyph unicode="G" horiz-adv-x="1263" d="M174 150q0 59 49 106q47 45 111 45q68 0 67 -70q0 -28 -24 -49q-23 -20 -49 -20q-20 0 -45 12q-29 14 -37 14q-37 0 -37 -47q0 -72 106 -104q74 -23 166 -23q150 0 301 97q121 78 250 219l213 241q-276 -193 -461 -192q-233 0 -233 227q0 49 33 137q33 80 67 125 q-276 70 -276 254q0 166 180 262q150 78 328 78q203 0 258 -55l-15 -16q-166 33 -211 32q-166 0 -315 -75q-182 -90 -182 -240q0 -168 260 -207q197 197 332 283q379 236 612 235q57 0 96 -24q49 -31 49 -84q0 -126 -178 -246q-135 -88 -295 -141q-125 -41 -432 -72 q-225 -244 -225 -336q0 -104 129 -104q141 0 289 75q88 43 250 168q33 27 106 66l10 -2l6 -4l5 -6l-2 -11q-66 -72 -109 -157l-84 -170q-98 -190 -322 -295q-197 -92 -434 -92q-307 0 -307 166zM889 887h29q37 0 81 4q190 20 367 90q207 80 309 203q57 66 58 121 q0 78 -115 77q-268 1 -729 -495z" />
<glyph unicode="H" horiz-adv-x="1304" d="M-57 70q0 135 278 325q190 127 410 226q332 362 680 645q-109 -51 -221 -52q-76 0 -176.5 70t-161.5 70q-80 0 -168 -72q-90 -74 -90 -154q0 -137 153 -137q162 0 316 174l18 -16q-45 -90 -137 -145.5t-197 -55.5q-190 0 -190 180q0 106 139 203q127 88 240 88 q121 0 223 -69.5t162 -69.5q78 0 172 57l151 109l23 -23q-164 -94 -367 -325q-166 -193 -297 -398q121 29 320 88q170 188 417 392q324 268 463 268q72 0 72 -53q0 -83 -154 -234q-199 -193 -583 -366q-109 -117 -297 -369q-225 -303 -226 -373q0 -14 39 -22q76 10 213 110 l197 156l22 -27q-310 -276 -436 -276q-68 0 -92 35q-20 27 -20 98q0 135 114 324q88 145 217 276l-317 -88q-125 -199 -367 -408q-283 -246 -465 -245q-77 0 -77 84zM-16 63q0 -45 36 -45q178 0 568 543q-164 -63 -359 -205q-245 -178 -245 -293zM1481 856q279 96 497 318 q147 147 148 215q0 27 -41 26q-77 0 -313 -239q-178 -183 -291 -320z" />
<glyph unicode="I" horiz-adv-x="1304" d="M-53 158q0 57 47 104t104 47q66 0 66 -53q0 -92 -66 -92q-20 0 -51 12q-8 4 -16 7l-13 5l-4 2q-10 0 -22 -14q-10 -12 -10 -26q0 -74 104 -111q80 -27 164 -27q481 0 905 731q-217 45 -217 232q0 365 649 399q143 4 299 23q129 37 148 37q4 -2 8 -2l6 -9v-4 q-14 -20 -66 -33l-77 -12q-115 -23 -303 -252q-147 -178 -240 -344q143 45 352 197l15 -23q-145 -139 -396 -215q-74 -127 -225 -364q-279 -389 -821 -389q-340 0 -340 174zM983 956q0 -156 193 -186q154 211 278 336q162 160 356 250q-20 6 -41 6q-326 0 -516 -98 q-270 -142 -270 -308z" />
<glyph unicode="J" horiz-adv-x="1019" d="M-270 -248q0 145 290 273q88 39 422 137q166 203 430 586q-12 0 -26 6q-96 37 -137 80q-49 55 -50 147q0 225 256 326q157 61 449 79q63 0 244 11q29 4 78 20q53 16 77 17q10 0 39 -4l4 -15q-35 -37 -161 -43l-62 -35q-111 -61 -283 -252q-158 -176 -223 -307 q199 55 348 201l27 -21q-188 -164 -395 -215l-320 -493l205 108l16 -26l-270 -137q-197 -240 -371 -363q-236 -172 -477 -172q-110 0 -110 92zM-236 -264q0 -49 86 -49q201 0 566 432q-652 -190 -652 -383zM705 954q0 -70 57 -125q56 -53 122 -53h7h6q176 213 305 328 q135 119 363 260h-107q-199 0 -375 -53q-209 -63 -315 -199q-63 -82 -63 -158z" />
<glyph unicode="K" horiz-adv-x="1464" d="M-78 152q0 57 47 104t107 47q76 0 76 -63q0 -31 -25 -54q-27 -23 -59 -22q-16 0 -39 8q-33 14 -39 14q-27 -8 -27 -51q0 -55 53 -84q47 -27 103 -26q174 0 360 192q59 63 266 338q188 246 304 365q154 158 368 303q49 33 70 43q-45 -10 -127 -35q-77 -25 -129 -25 q-90 0 -207 84t-203 84q-120 0 -233 -74q-127 -84 -127 -196q0 -172 194 -172q111 0 199 45q78 39 164 125l18 -17q-115 -115 -164 -145q-82 -51 -210 -51q-98 0 -164 51q-74 59 -74 150q0 141 151 243q137 90 287 90q129 0 279 -80q147 -78 213 -77q77 0 172 55 q143 82 160 88h6l8 -8l-6 -17q-412 -305 -631 -655q31 10 61 10q14 0 52 -10q31 -8 53 -8q70 0 237 180l310 338q186 182 292 182q86 0 86 -61q0 -37 -20 -60q-23 -29 -55 -28q-39 0 -49 22q-2 4 -2 54q0 23 -23 22q-16 0 -201 -266q-117 -174 -235 -268 q-141 -111 -328 -136q72 -66 72 -166t-72 -208q-31 -45 -135 -162q-72 -82 -72 -115q0 -31 37 -31q102 0 451 273l18 -31l-225 -168q-156 -106 -244 -106q-63 0 -90 24.5t-27 89.5q0 102 72 209l135 164q72 90 72 158q0 49 -70 61q-109 18 -112 21l-170 -252 q-328 -471 -756 -471q-86 0 -139 39q-64 43 -64 123z" />
<glyph unicode="L" horiz-adv-x="1464" d="M-59 88q0 68 116 107q89 31 172 30q203 0 453 -100q125 109 240 266l204 295q-229 0 -383 66q-209 88 -208 290q0 207 223 334q186 106 409 107q164 0 301 -53l-12 -17q-233 35 -276 35q-213 0 -392 -98q-213 -117 -213 -314q0 -166 181 -252q141 -66 325 -65q31 0 72 2 q162 242 383 438q287 260 492 260q49 0 79 -30q33 -33 33 -78q0 -113 -149 -260q-111 -109 -248 -193q-117 -70 -406 -158q-197 -301 -245 -354q-113 -123 -363 -240q188 -47 313 -47q190 0 461 240l17 -27q-104 -120 -271 -202q-176 -90 -325 -90q-95 0 -357 61 q-231 -57 -405 -57q-221 0 -221 104zM-20 82q0 -66 210 -66q162 0 314 52l-176 57q-104 31 -183 31q-165 0 -165 -74zM1356 745q178 20 450 201q297 199 297 359q0 84 -84 84q-135 0 -368 -259q-154 -172 -295 -385z" />
<glyph unicode="M" horiz-adv-x="1589" d="M-74 84q0 68 33 115q35 53 102 53q72 0 72 -68q0 -29 -22 -55q-22 -25 -50 -25q-35 0 -57 15h-4q-31 -12 -31 -45q0 -55 78 -56q92 0 412 367q524 596 606 678q362 367 557 367q23 0 47 -7l10 -8v-4q-12 -20 -82 -104l-155 -179q-27 -33 -395 -522l-220 -297l-110 -139 q-72 -96 -72 -133q0 -14 14 -14q49 0 347 362q412 496 581 672q354 362 527 362q12 0 18 -10v-6q-10 -18 -84 -113l-152 -190l-399 -547q-324 -459 -323 -510q0 -23 28 -23q59 0 211 103q127 88 199 149l20 -26q-178 -135 -213 -158q-152 -100 -227 -100q-104 0 -105 118 q0 215 390 660q113 129 571 588l8 20l-4 4q-86 -18 -299 -209q-258 -229 -690 -774q-322 -406 -422 -405q-61 0 -61 88q0 346 850 1139q88 82 167 163l-4 4q-166 -22 -516 -387l-598 -661q-328 -352 -446 -352q-43 0 -76 28q-31 29 -31 72z" />
<glyph unicode="N" horiz-adv-x="1388" d="M-57 123q0 49 43 94t92 45q74 0 74 -63q0 -25 -23 -54q-20 -27 -47 -26q-43 0 -64 14q-31 -12 -30 -53q0 -23 30 -45q28 -18 56 -19q131 0 366 258q147 160 420 525q254 342 328 411q131 129 248 189q-72 -94 -105 -234l-47 -252q-80 -390 -197 -596q-40 -65 -110 -202 q162 164 450 598q205 305 277 397q221 287 334 287q119 0 119 -115q0 -55 -31 -92q-33 -39 -90 -39q-55 0 -56 68q0 45 60 53q61 10 61 41q0 53 -63 53q-141 0 -570 -657l-165 -248q-94 -133 -183 -238q-80 -92 -119 -131q-74 -74 -135 -112q63 119 105 274l59 287 q55 254 113 399q68 170 200 365q-141 -100 -358 -390l-252 -346q-190 -258 -289 -358q-217 -225 -376 -225q-125 0 -125 137z" />
<glyph unicode="O" horiz-adv-x="1140" d="M66 322q0 206 178 436q137 176 350 334q436 322 815 321q104 0 168 -45q74 -52 74 -147q0 -86 -64 -156q-59 -66 -145 -90l-10 18q80 33 124 92q53 66 54 144q0 147 -207 147q-256 0 -563 -239q-231 -182 -441 -451q-246 -313 -245 -481q0 -188 198 -189q236 0 512 234 q223 188 379 436q117 184 117 299q0 51 -29 92q-31 47 -82 47q-131 0 -325 -176q-197 -178 -197 -307q0 -53 76 -53q98 0 221 137q88 96 154 227l28 -8q-68 -156 -166 -256q-127 -129 -266 -129q-49 0 -76 45q-23 39 -22 90q0 160 205 316q193 147 358 147q76 0 117 -47 q39 -45 39 -123q0 -242 -322 -584q-311 -330 -557 -393q-92 -25 -170 -24q-141 0 -215 100q-65 91 -65 236z" />
<glyph unicode="P" horiz-adv-x="1464" d="M-74 147q0 65 49 111q51 47 113 47q72 0 72 -63q0 -34 -25 -56q-27 -23 -59 -22q-14 0 -41 12q-33 14 -35 14q-12 0 -23 -18q-10 -20 -10 -31q0 -65 86 -98q70 -27 142 -27q201 0 383 125q141 98 296 295l244 334q274 373 551 537q-164 88 -391 88q-143 0 -281 -33 q-229 -53 -434 -203q-248 -180 -248 -379q0 -72 47 -118q45 -45 117 -46q207 0 408 195q172 166 262 387q4 16 25 59l30 -12q-127 -297 -254 -448q-188 -225 -440 -226q-106 0 -168 54q-70 57 -70 159q0 70 58 170q131 229 411 359q255 117 541 117q246 0 410 -101l153 92 l19 -24q-39 -23 -140 -92q78 -78 105 -119q41 -66 41 -154q0 -168 -143.5 -311t-313.5 -143q-121 0 -121 108q0 47 54 94q47 41 96 56l8 -23q-119 -57 -119 -137q0 -27 20.5 -45.5t47.5 -18.5q141 0 254 179q102 156 102 309q0 129 -57 184l-68 -55q-182 -154 -362 -481 q-37 -68 -176 -306q-152 -229 -353 -340q-186 -100 -477 -118q-20 -2 -43 -2q-109 0 -186 30q-107 43 -107 135z" />
<glyph unicode="Q" horiz-adv-x="1224" d="M72 301q0 250 235 522q213 248 529 416q317 170 561 170q104 0 172 -37q86 -46 86 -141q0 -77 -56 -154q-57 -82 -131 -94l-20 14q170 74 170 240q0 70 -62 109q-57 35 -124 34q-461 0 -969 -622q-307 -375 -307 -572q0 -86 69 -133q59 -39 152 -39q51 0 221 58 q-74 172 -156 172q-43 0 -110 -31q-66 -29 -101 -57l-16 22q135 98 254 98q170 0 250 -137l88 62q186 129 358 348q201 260 201 440q0 139 -131 139q-125 0 -313 -182q-190 -184 -191 -305q0 -55 78 -55q94 0 223 139q106 117 158 227l22 -12q-203 -379 -419 -379 q-111 0 -111 129q0 158 203 316q190 147 356 147q158 0 158 -164q0 -193 -244 -495q-221 -274 -420 -381q80 -106 164 -107q96 0 287 184l22 -16q-102 -109 -192 -162q-109 -63 -242 -63q-102 0 -170 92q-106 -53 -244 -53q-139 0 -215 90q-73 86 -73 223z" />
<glyph unicode="R" horiz-adv-x="1630" d="M-84 174q0 55 49 100q47 45 103 45q76 0 75 -61q0 -29 -22 -51q-20 -20 -55 -21q-12 0 -39 10.5t-37 10.5q-35 0 -35 -39q0 -147 242 -148q188 0 376 146q135 102 306 319q221 283 262 328q293 319 561 471q-98 68 -203 92q-82 20 -221 21q-309 0 -594 -162 q-336 -190 -336 -471q0 -82 62 -125q57 -39 139 -39q215 0 424 227q193 211 237 437l33 -7q-74 -283 -244 -471q-195 -219 -462 -219q-102 0 -162 51q-66 55 -66 156q0 143 131 293q102 117 258 207q248 145 555 145q158 0 248 -20q113 -25 232 -94q76 37 202 88l9 -21 q-119 -47 -189 -92q121 -133 121 -248q0 -172 -150 -280q-123 -86 -311 -111q41 -70 41 -156q0 -100 -67 -204q-41 -61 -127 -148q-70 -74 -70 -94q0 -18 25 -19q74 0 239 105q135 86 221 162l21 -23q-311 -274 -498 -274q-94 0 -94 123q0 76 76 163l141 150q78 94 78 180 q0 2 -1 6t-2 11.5t-1 15.5h-19q-43 0 -78 8q-59 16 -53 41l4 6q14 10 41 11q49 0 119 -41q145 57 248 196q106 143 106 297q0 49 -39 109q-119 -63 -268 -252q-150 -190 -256 -355q-193 -289 -309 -397q-182 -168 -442 -237q-133 -35 -236 -35q-113 0 -192 37 q-107 49 -107 147z" />
<glyph unicode="S" horiz-adv-x="1345" d="M-66 182q0 68 43 115t109 47q72 0 72 -70q0 -29 -25 -51q-23 -20 -57 -20q-18 0 -43 12q-29 14 -35 14q-31 0 -31 -51q0 -80 117 -123q86 -31 184 -30q248 0 496 223q186 168 350 440q-39 -2 -72 -2q-193 0 -342 78q-184 96 -184 272q0 205 217 336q184 111 408 111 q160 0 297 -53l-13 -19q-156 33 -264 33q-211 0 -391 -96q-213 -117 -213 -312q0 -174 188 -258q133 -59 338 -59q37 0 54 2q526 692 835 692q90 0 90 -80q0 -125 -241 -342q-215 -195 -512 -297q-211 -307 -248 -352q-137 -170 -291 -256q-176 -100 -420 -100 q-416 -1 -416 196zM1333 741q135 31 316 156q160 111 264 238q115 143 115 202q0 47 -64 47q-119 0 -346 -264q-133 -154 -285 -379z" />
<glyph unicode="T" horiz-adv-x="1140" d="M-74 150q0 59 45 106q46 49 105 49q74 0 74 -74q0 -25 -23 -47q-20 -20 -47 -20q-20 0 -51 12t-37 12q-31 0 -31 -51q0 -63 86 -96q70 -27 141 -27q180 0 324 103q94 66 238 243l247 314q236 295 588 557l19 -23q-55 -28 -142 -123q-158 -172 -315 -440 q-113 -188 -189 -287q-113 -143 -253 -227q-248 -145 -498 -145q-96 0 -178 32q-103 44 -103 132zM334 948q0 76 59 172q98 152 285 230q172 74 362 73q150 0 422.5 -45t423.5 -45q82 0 199 47l8 -22q-186 -113 -373 -113q-131 0 -293 27l-290 55q-166 31 -219 31 q-182 0 -353 -113q-193 -127 -192 -297q0 -197 223 -196q197 0 352 118q121 92 250 287l31 -4q-127 -211 -252 -311q-160 -125 -375 -125q-268 0 -268 231z" />
<glyph unicode="U" horiz-adv-x="1464" d="M356 963q0 186 226 329q203 129 399 129q109 0 190 -53q92 -61 93 -164q0 -141 -211 -403q-65 -80 -394 -443q-211 -231 -210 -295q0 -49 45 -49q227 0 759 578q439 476 639 805h193l-596 -785l-279 -354q-55 -72 -129 -195q-2 -6 -5 -11t-4 -8l-1 -3q0 -27 43 -27 q98 0 440 275l19 -19q-356 -285 -469 -284q-117 0 -117 114q0 82 82 203l135 182l-334 -305q-236 -195 -381 -194q-49 0 -83 41q-33 39 -33 94q0 125 207 375l383 434q205 242 204 354q0 117 -202 117q-180 0 -369 -133q-205 -143 -205 -318q0 -52 37 -86q35 -33 88 -33 q150 0 285 160q119 143 153 301h25q-39 -160 -96 -258q-72 -119 -199 -184q-98 -49 -164 -49q-72 0 -117 45q-47 47 -47 117z" />
<glyph unicode="V" horiz-adv-x="1181" d="M195 1094q0 145 163 243q147 88 299 88q104 0 183 -49l110 -90q61 -49 121 -49q96 0 277 127q2 2 57 37l12 -8q0 -8 -16 -25q-211 -205 -404 -520q-57 -104 -143 -246q-213 -319 -502 -549q-4 -4 -14 -24l10 -6q27 4 84 20q166 51 313 156q176 125 410 381l272 315 q219 258 287 324q215 209 357 208q106 0 106 -94q0 -106 -90 -106q-23 0 -41 20q-18 23 -18 45q0 39 36.5 53.5t36.5 20.5q0 8 -16 20q-12 10 -27 11q-35 0 -129 -54q-111 -59 -266 -231l-231 -274q-313 -373 -510 -543q-354 -309 -643 -309q-12 0 -19 12l2 6l60 68 q88 96 192 274l164 293q109 188 256 338q76 76 313 280q-190 -74 -291 -73q-89 0 -190 98t-184 98q-111 0 -226 -88q-123 -92 -123 -196q0 -152 179 -152q193 0 350 213l22 -18q-74 -121 -155 -172q-88 -57 -226 -58q-88 0 -147 47q-61 50 -61 138z" />
<glyph unicode="W" horiz-adv-x="1224" d="M-72 18q8 12 72 80q102 109 258 383q152 264 291 432q172 207 383 353l-135 -47q-86 -27 -142 -27q-94 0 -159 49l-90 90q-49 47 -119 47q-102 0 -203 -82q-109 -86 -109 -186q0 -145 148 -145q199 0 330 174l16 -15q-37 -86 -137 -143q-94 -55 -195 -55q-88 0 -141 45 q-59 49 -59 135q0 138 147 233q127 82 278 82q96 0 168 -47l99 -88q53 -47 110 -47q88 0 181 57l157 103h6q10 0 11 -13q0 -14 -50 -57q-199 -180 -389 -506q-260 -440 -514 -653l-67 -53q-43 -37 -58 -62l9 -4q190 90 284 162q92 71 234 233l280 357q209 264 367 405 q217 195 362 195q14 0 21 -6l-2 -13q-25 -39 -72 -86q-74 -78 -76 -79q-86 -104 -209 -301q-135 -217 -200 -308q-221 -301 -385 -440q-41 -29 -131 -115q0 -4 8 -4q16 0 80 29q233 109 491 401l279 328q252 307 311 371q240 254 369 254q102 0 102 -95q0 -43 -27 -71 q-28 -31 -67 -31q-23 0 -41 24.5t-18 47.5q0 35 36 47q39 12 45 30l-6 9l-8 4h-8q-143 0 -531 -449q-164 -199 -505 -583q-209 -221 -371 -299q-121 -59 -193 -60l-28 4l-6 4l57 64q113 125 225 323q291 510 694 850l66 54q47 41 47 63q0 4 -2 4h-4q-178 -84 -360 -272 q-129 -131 -279 -320l-268 -325q-166 -194 -283 -289q-193 -160 -358 -160q-13 0 -17 10z" />
<glyph unicode="X" horiz-adv-x="1263" d="M-35 74q0 168 393 366q268 135 555 224q102 123 174 249q96 168 97 279q0 199 -240 199q-182 0 -362 -101q-209 -117 -209 -282q0 -143 155 -144q303 0 439 412h22q0 -6 -4 -35q-29 -170 -145 -285q-127 -123 -293 -122q-84 0 -144 40q-68 47 -67 130q0 201 231 319 q186 96 412 96q125 0 201 -84q78 -88 77 -209q0 -78 -14 -147q138 147 320 276q231 164 370 164q41 0 68 -16q35 -20 35 -53q0 -139 -205 -306q-137 -109 -334 -210q-92 -47 -367 -146q-350 -463 -350 -604q0 -68 64 -68q68 0 227 105q129 86 213 160l19 -23 q-90 -90 -220 -172q-150 -96 -247 -96q-119 0 -119 164q0 113 45 204q-180 -168 -318 -252q-195 -119 -381 -118q-35 0 -65 24q-33 27 -33 62zM2 66q0 -51 90 -52q168 0 436 232q203 174 355 377q-299 -94 -518 -207q-363 -184 -363 -350zM1165 727q260 94 498 238 q340 205 340 370q0 57 -70 58q-152 0 -426 -263q-227 -219 -342 -403z" />
<glyph unicode="Y" horiz-adv-x="1304" d="M-47 -397q0 129 305 266q213 98 428 147q10 16 227 287q133 164 211 299q-158 -158 -301 -260q-217 -160 -346 -160q-115 0 -115 144q0 139 177 333l329 332q176 184 176 291q0 117 -194 117q-190 0 -404 -115q-244 -133 -243 -305q0 -49 39 -80q41 -31 90 -31 q131 0 293 119q150 111 213 240q16 41 28 61h23q-4 -12 -15 -37q-68 -168 -212 -282q-154 -123 -326 -123q-166 0 -166 141q0 195 260 330q219 113 436 113q233 0 234 -203q0 -175 -172 -387q-68 -84 -324 -330q-172 -170 -172 -236q0 -59 57 -59q250 0 1127 950l242 236 h174q-473 -451 -1100 -1305q195 84 387 230l20 -31q-182 -145 -450 -256q-139 -207 -348 -361q-240 -176 -459 -176q-129 1 -129 101zM-8 -410q0 -61 94 -61q143 0 320 164q84 78 249 280q-203 -47 -389 -137q-274 -129 -274 -246z" />
<glyph unicode="Z" horiz-adv-x="1464" d="M-80 84q0 55 98 82q68 20 146 20q211 0 366 -34q236 180 447 505h-12q-4 0 -8.5 1t-6.5 1q-92 0 -209 -47l-18 23l137 65q45 18 162 19q147 180 479 446h-12q-139 0 -299 64l-184 78q-111 43 -195 43q-117 0 -211 -64q-106 -70 -106 -178q0 -156 190 -156q176 0 346 174 l17 -16q-47 -80 -150 -135q-104 -55 -197 -55q-244 0 -243 190q0 139 170 231q143 80 297 80q131 0 317 -90q223 -111 307 -131q274 209 434 209q74 0 74 -41q0 -100 -201 -162q-141 -43 -286 -47q-96 -84 -191 -217q-33 -47 -155 -242h57q92 0 176 37l8 -26 q-96 -72 -288 -72q-254 -330 -570 -496q115 -20 297 -20q444 0 527 209h32q-55 -170 -200 -258q-139 -82 -322 -82q-181 0 -467 86q-211 -84 -367 -84q-186 0 -186 90zM-41 84q0 -61 151.5 -61t317.5 71q-221 57 -293 58q-51 0 -102 -15q-74 -18 -74 -53zM1599 1192 q96 2 162 14q72 16 154 58q104 52 104 98q0 20 -37 20q-77 0 -202 -67q-103 -57 -181 -123z" />
<glyph unicode="[" horiz-adv-x="1101" d="M-186 -442l1374 1872h340l-33 -37h-160l-1310 -1788h161l-34 -47h-338z" />
<glyph unicode="\" horiz-adv-x="567" d="M-35 1509h135l504 -1548h-137z" />
<glyph unicode="]" horiz-adv-x="1101" d="M-311 -449l39 43h168l1302 1786h-170l29 50h352l-684 -945l-694 -934h-342z" />
<glyph unicode="^" horiz-adv-x="0" d="M657 1505q49 18 160 86q29 16 273 178l22 -272h-37l-88 98l-242 -98z" />
<glyph unicode="_" horiz-adv-x="1138" d="M0 -154h1139v-102h-1139v102z" />
<glyph unicode="`" horiz-adv-x="0" d="M199 1059h198l62 -223h-41z" />
<glyph unicode="a" horiz-adv-x="978" d="M113 119q0 193 233 375q223 172 422 172q100 0 100 -80q0 -16 -6 -35l70 94h184l-242 -305q-180 -236 -194 -297q10 -10 18 -10q104 0 361 252l20 -27q-70 -80 -188 -166q-145 -106 -215 -106q-41 0 -78 37q-35 35 -35 77q0 20 25 101q-70 -84 -160 -142 q-113 -74 -195 -73q-55 0 -87.5 39t-32.5 94zM213 51q0 -35 39 -35q104 0 341.5 233.5t237.5 338.5q0 33 -36 33q-102 0 -340 -236q-242 -238 -242 -334z" />
<glyph unicode="b" horiz-adv-x="772" d="M94 119q0 127 117 276q233 307 510 590q401 408 598 408q51 0 51 -47q0 -102 -178 -269q-106 -102 -363 -291q-248 -184 -292 -229q-37 -37 -213 -281l-82 -108q-57 -78 -58 -115q0 -35 47 -35q92 0 248 132q123 100 209 206l-2 45q0 83 43 166q51 96 129 97q31 0 31 -43 q0 -59 -158 -265q31 -61 84 -61q29 0 68 4v-29q-41 -8 -74 -8q-45 0 -104 53q-154 -157 -222 -209q-147 -117 -268 -116.5t-121 129.5zM629 672q696 512 696 655q0 25 -10 31q-8 4 -33 4q-86 0 -344 -297q-209 -243 -309 -393z" />
<glyph unicode="c" horiz-adv-x="690" d="M119 147q0 182 237 361q223 168 414 168q119 0 119 -84q0 -49 -29 -94q-31 -47 -84 -47q-59 0 -59 53t33 67q2 2 59 15q31 6 31 32l-11 19l-12 4l-18 2q-111 0 -342 -231q-233 -233 -234 -340q0 -55 56 -56q86 0 256 107q135 86 231 172l20 -25q-102 -102 -241 -184 q-168 -100 -281 -100q-68 0 -108 49q-37 42 -37 112z" />
<glyph unicode="d" horiz-adv-x="978" d="M111 123q0 197 245 375q229 166 432 166q35 0 56 -19q23 -18 22 -49q0 -25 -8 -49l555 723h178l-549 -717l-200 -254q-141 -184 -166 -254q12 -18 31 -18q52 0 184 104q102 80 166 150l22 -23q-70 -78 -192 -168q-143 -104 -219 -104q-104 0 -105 108q0 25 12 99 q-180 -205 -346 -205q-118 0 -118 135zM211 45q0 -31 41 -31q102 0 342 236q238 233 237 340q0 35 -38 35q-96 0 -340 -240q-242 -240 -242 -340z" />
<glyph unicode="e" horiz-adv-x="733" d="M125 133q0 190 246 365q227 164 426 164q82 0 82 -76q0 -86 -224 -197q-154 -77 -307 -123q-33 -31 -72 -92q-45 -70 -45 -102q0 -55 78 -56q109 0 283 95q145 78 250 172l18 -23q-324 -272 -555 -272q-180 0 -180 145zM379 313q141 35 274 107q188 102 189 192 q0 23 -49 23q-70 0 -220 -131q-98 -85 -194 -191z" />
<glyph unicode="f" horiz-adv-x="569" d="M-508 -541l604 824q-8 23 -8 47q0 2 6 24q20 55 74 101l100 75q111 88 269 283l245 313q74 88 207 179q158 104 244 104q51 0 51 -61q0 -98 -297 -385q-215 -209 -399 -349q-68 -47 -170 -127q-43 -46 -99 -129l-90 -135q55 -10 70 -10q104 0 262 84l12 -27 q-158 -88 -262 -88q-63 0 -104 17l-535 -740h-180zM498 586q205 160 422 360q317 297 317 393q0 43 -31 43q-100 0 -377 -342q-171 -214 -331 -454z" />
<glyph unicode="g" horiz-adv-x="978" d="M-324 -465q0 182 662 457l162 215l-164 -115q-101 -68 -184 -67q-115 0 -115 135q0 172 239 342q223 156 408 155q57 0 74 -30q8 -14 8 -45q0 -15 -2 -35l74 92h166l-447 -588q2 0 8 3t18.5 7.5t24.5 10.5q80 31 199 102q145 90 190 113l15 -25q-129 -86 -500 -270 q-426 -526 -739 -527q-97 0 -97 70zM-272 -463q0 -45 59 -45q111 0 289 178q123 119 231 277q-201 -80 -342 -162q-237 -142 -237 -248zM135 76q0 -25 29 -25q119 0 348 207q227 205 227 328q0 33 -41 32q-94 0 -327 -225q-236 -227 -236 -317z" />
<glyph unicode="h" horiz-adv-x="978" d="M-39 6l404 518q262 340 428 512q330 344 516 344q63 0 63 -59q0 -176 -616 -619l-156 -108q-39 -29 -158 -213q143 129 203 170q145 104 229 104q94 0 95 -112q0 -80 -88 -193q-33 -43 -162 -184q-88 -100 -88 -131q0 -18 28 -19q96 0 392 263l18 -23q-86 -86 -197 -166 q-147 -104 -221 -104q-119 0 -119 112q0 80 84 189q25 33 164 182q92 98 101 133q-3 15 -19 25h-8q-121 0 -471 -351q-96 -96 -225 -270h-197zM655 674q213 135 396 291q276 233 276 354q0 33 -35 33q-92 0 -334 -291z" />
<glyph unicode="i" horiz-adv-x="487" d="M109 104q0 84 139 277q29 41 205 258h186l-242 -307q-195 -254 -194 -287q0 -18 33 -18q49 0 182 102q115 84 168 145l20 -18q-297 -266 -395 -266q-102 -1 -102 114zM635 881q0 47 32.5 79.5t80.5 32.5q34 0 61 -24q27 -25 27 -60q0 -45 -35 -75.5t-76 -30.5 q-90 0 -90 78z" />
<glyph unicode="j" horiz-adv-x="528" d="M-592 -463q0 98 168 234q139 111 262 161l539 711h192l-481 -620q174 90 438 264l21 -27l-252 -168q-156 -96 -268 -143q-84 -139 -240 -295q-190 -184 -309 -184q-70 -1 -70 67zM-547 -471q0 -25 33 -25q59 0 170 154q0 2 137 209q-340 -209 -340 -338zM557 893 q0 39 37 70q39 33 76 32q90 0 90 -73q0 -49 -33 -84t-80 -35q-90 0 -90 90z" />
<glyph unicode="k" horiz-adv-x="937" d="M-37 8l377 494q293 371 524 590q299 285 477 284q59 0 60 -71q0 -82 -221 -279q-164 -145 -301 -238q-80 -43 -269 -176q-27 -23 -71 -84l-66 -92q96 76 219 142q158 82 240 81q86 0 86 -71q0 -80 -88 -131q-53 -33 -168 -62q-94 -25 -96 -33q0 -10 26.5 -38.5 t26.5 -61.5q0 -68 -47 -131q-51 -66 -60 -90l6 -12l9 -4h10q37 0 186 112q113 84 183 150l24 -25q-33 -25 -59.5 -47t-46 -36.5t-35 -28t-24.5 -20.5l-17 -13l-12.5 -9.5t-6.5 -5.5t-3 -4t-3 -2q-154 -111 -221 -110q-45 0 -74 26q-33 29 -32 70q0 70 59 147q57 76 57 80 q0 51 -55 51q-20 0 -33 -4v27q84 8 228 76q162 76 161 141q0 16 -28 16q-168 0 -412 -231q-184 -172 -321 -377h-189zM672 694q205 131 397 287q287 233 287 342q0 31 -39 31q-89 0 -338 -283q-170 -193 -307 -377z" />
<glyph unicode="l" horiz-adv-x="528" d="M131 106q0 139 252 459q238 307 520 549q305 266 449 266q49 0 49 -53q0 -172 -696 -702l-123 -90l-66 -50q-12 -12 -55 -67l-131 -185q-106 -145 -107 -186q0 -23 33 -22q63 0 367 262l16 -27q-147 -133 -199 -170q-139 -102 -229 -102q-80 -1 -80 118zM592 586 q186 129 434 344q328 287 328 387q0 33 -37 33q-104 0 -381 -326q-59 -69 -344 -438z" />
<glyph unicode="m" horiz-adv-x="1388" d="M-74 6l486 637h178q-90 -111 -94 -115q-49 -61 -84 -122q84 84 188 157q139 100 213 101q90 0 90 -105q0 -82 -51 -164q72 92 184 170q133 96 224 97q94 0 94 -119q0 -80 -82 -187l-158 -176q-92 -102 -100 -145q6 -14 30 -15q49 0 201 109q126 92 191 154l20 -25 q-299 -272 -440 -272q-100 0 -101 114q0 80 84 187q35 43 162 174q94 94 107 139q-4 29 -23 29h-4q-174 -47 -375 -260l-303 -361h-190q446 573 446 596q0 27 -20 27q-127 0 -373 -254q-186 -193 -307 -371h-193z" />
<glyph unicode="n" horiz-adv-x="978" d="M-49 6l489 637h185q-100 -102 -176 -237q281 254 423 253q92 0 93 -116q0 -80 -80 -185q-23 -29 -156 -174q-90 -98 -98 -145l8 -14q10 -4 25 -5q43 0 196 111q150 106 189 152l18 -25q-143 -127 -205 -172q-139 -100 -237 -100q-96 0 -97 116q0 74 93 191q45 57 167 190 q92 98 93 123q0 25 -27 25q-141 0 -489 -355q-78 -78 -220 -270h-194z" />
<glyph unicode="o" horiz-adv-x="733" d="M119 131q0 182 223 363q215 172 401 172q33 0 57.5 -25t24.5 -57q0 -84 -98 -248q37 -37 88 -37q8 0 29 4v-29q-10 -2 -47 -2q-53 0 -99 35q-84 -121 -196 -211q-139 -109 -256 -108q-127 0 -127 143zM211 57q0 -43 43 -43q94 0 238 123q104 90 194 201q-2 8 -2 29 q0 66 29 110q10 16 55 51q29 23 29 50q0 45 -41 45q-92 0 -320 -236q-225 -234 -225 -330z" />
<glyph unicode="p" horiz-adv-x="978" d="M-469 -514l879 1153h178l-201 -256q147 133 209 176q137 98 244 98q86 0 86 -118q0 -92 -168 -279q-170 -188 -170 -219q8 -20 33 -21q49 0 198 107q133 96 189 152l16 -25q-92 -92 -201 -164q-143 -98 -227 -98q-104 0 -104 102q0 84 83 193q31 41 160 176 q96 98 107 143q-2 25 -35 25q-86 0 -311 -195q-178 -154 -279 -276q-143 -174 -514 -674h-172z" />
<glyph unicode="q" horiz-adv-x="978" d="M-8 -524l559 702l-162 -121q-109 -70 -180 -69q-123 0 -123 131q0 190 246 370q225 168 428 168q84 0 84 -75q0 -16 -2 -25l65 82h168l-600 -774q352 227 588 418l18 -25l-493 -350q-289 -219 -410 -432h-186zM186 59q0 -43 39 -43q111 0 348.5 231.5t237.5 340.5 q0 39 -39 39q-76 0 -237 -144q-133 -117 -207 -202q-94 -113 -123 -168q-19 -38 -19 -54z" />
<glyph unicode="r" horiz-adv-x="690" d="M-31 8l480 633h186l-342 -455l399 336q33 82 78 115q41 29 135 29q39 0 39 -25q0 -2 -1 -4q-1 -3 -3 -6l-74 -74q-43 -49 -43 -90q0 -14 27 -23v-6q0 -2 -4 -14l-17 -4q-10 2 -29.5 2t-29.5 2q-29 2 -57 25l-17 30q-352 -285 -546 -471h-181z" />
<glyph unicode="s" horiz-adv-x="608" d="M37 86q0 98 92 98q57 0 57 -51q0 -39 -22 -51q-6 -4 -25.5 -11.5t-27.5 -11.5l-9 -16v-4q12 -25 35 -25q119 0 258 238q120 203 142 350l-355 -295l-20 23q309 225 381 321l45 76q31 53 59 53q16 0 17 -20q0 -40 -93 -129q4 -39 21 -129q14 -78 14 -131q0 -154 -164 -275 q-152 -111 -311 -110q-94 0 -94 100z" />
<glyph unicode="t" horiz-adv-x="487" d="M109 94q0 114 159 332l238 309h-131l14 33h143l254 330h187l-252 -328h192l-16 -31h-201l-149 -198l-203 -256q-160 -207 -156 -244l11 -8q6 -2 28 -2q37 0 181 108q125 96 174 146l18 -27q-139 -119 -190 -158q-139 -106 -207 -106q-94 0 -94 100z" />
<glyph unicode="u" horiz-adv-x="937" d="M84 98q0 98 133 283l207 260h186q-434 -539 -434 -600q0 -16 23 -16h10q59 0 235 139q94 72 218 229q152 195 198 248h184l-243 -309q-195 -254 -195 -293q0 -16 29 -16q53 0 192 106q106 80 181 154l14 -25q-139 -125 -195 -168q-135 -102 -219 -102q-100 0 -100 102 q0 49 16 103q-63 -59 -155 -123q-117 -80 -174 -80q-111 -1 -111 108z" />
<glyph unicode="v" horiz-adv-x="733" d="M86 131q0 86 129 264q23 31 195 246h194q-430 -535 -430 -594q0 -29 43 -29q100 0 252 132q123 104 205 217q0 80 35 174q43 117 110 116q20 0 21 -41q0 -59 -45 -135l-82 -121q4 -68 65 -67q27 0 64 10v-31q-41 -10 -72 -10t-49 19q-25 25 -37 38q-94 -115 -213 -208 q-150 -119 -260 -119q-125 0 -125 139z" />
<glyph unicode="w" horiz-adv-x="1140" d="M74 123q0 88 133 268l201 248h180l-441 -576q0 -6 -2 -13t-2 -9q0 -27 50 -27q4 0 22 9q160 65 338 270l272 346h185l-269 -346l-92 -119q-55 -84 -55 -131q0 -27 41 -27q92 0 248 140q133 119 198 223q0 82 33 166q43 106 109 106q27 0 26.5 -51t-131.5 -233v-17 q0 -57 90 -57q27 0 41 2v-25q-20 -6 -51 -6q-80 0 -108 66q-147 -166 -211 -219q-145 -121 -269 -121q-41 0 -73 39q-29 35 -29 82q0 29 12 100q-213 -219 -350 -219q-59 0 -82 37q-14 22 -14 94z" />
<glyph unicode="x" d="M-8 76q0 52 37 92q37 39 88 39q55 0 55 -45q0 -70 -49 -70h-27q-6 0 -15 1t-11 1q-10 0 -27 -10q-14 -8 -14 -21q0 -49 61 -49q86 0 299 252q211 252 211 338q0 25 -43 25q-141 0 -346 -242l-27 19q74 92 168 161q125 90 211 90q106 0 107 -104q0 -20 -6 -41 q143 143 254 143q98 0 98 -92q0 -43 -33 -82q-31 -37 -78 -37q-49 0 -49 50q0 53 43 59q59 8 66 12l10 27q-9 37 -49 37q-65 0 -277 -258q-213 -260 -213 -324q0 -33 39 -33q55 0 221 113q147 100 207 160l17 -27l-215 -168q-152 -104 -238 -104q-94 0 -94 108q0 18 2 29 l-68 -45.5l-48 -32.5t-19 -12q-84 -47 -156 -47q-92 0 -92 88z" />
<glyph unicode="y" horiz-adv-x="937" d="M-338 -469q0 119 260 274q172 102 375 183q100 119 166 223q-72 -72 -164 -133q-115 -76 -190 -76q-43 0 -72 31q-27 29 -27 73q0 80 53 164q10 18 107 140l178 229h187l-222 -274q-126 -160 -202 -289l-2 -17q0 -18 24 -18q113 0 412 299q86 86 258 307l174 -8 l-459 -600q86 22 234 104q125 72 217 142l22 -23q-276 -197 -516 -278q-389 -518 -727 -519q-86 0 -86 66zM-289 -469q0 -37 47 -37q115 0 285 176q55 55 229 275q-561 -240 -561 -414z" />
<glyph unicode="z" horiz-adv-x="772" d="M-35 18q6 47 94 88q125 57 127 60l482 362q-55 -10 -97 -10q-66 0 -106 41l-322 -254l-20 25l321 256q6 123 80 123q49 0 49 -43q0 -37 -75 -93q43 -25 92 -24q68 0 110 20q119 119 205 119q33 0 33 -20q0 -96 -209 -140l-420 -323q109 35 162 35q100 0 100 -76 q0 -23 -20.5 -49.5t-20.5 -44.5q0 -6 5 -9q131 63 311 226l22 -25l-209 -168q-139 -102 -233 -102q-88 0 -88 71q0 23 35 64t37 59l-2 9l-13 6q-158 -31 -358 -185q-27 -20 -45 -20q-17 -1 -27 22z" />
<glyph unicode="{" horiz-adv-x="681" d="M86 479v123q115 0 147 137q16 57 17 230v88q0 195 22 268q47 154 189 154h137v-133h-90q-94 0 -94 -168v-234v-115q-4 -92 -49 -172q-53 -92 -132 -114v-4q113 -33 156 -168q27 -90 27 -242q0 -8 -1 -37t-1 -51v-86q0 -223 94 -223h90v-133h-137q-100 0 -158 86 q-51 76 -51 178v350q0 94 -37 170q-47 96 -129 96z" />
<glyph unicode="|" horiz-adv-x="530" d="M193 -39v1548h149v-1548h-149z" />
<glyph unicode="}" horiz-adv-x="681" d="M86 -268h90q96 0 96 223q0 6 -1 34.5t-1 51t-1 51.5t-1 37q0 152 27 242q43 135 156 168v4q-78 23 -132 114q-45 80 -49 172v349q0 168 -94 168h-90v133h137q213 0 213 -381q0 -6 -1 -30t-1 -40v-59q0 -160 17 -230q33 -137 147 -137v-123q-82 0 -129 -96 q-37 -76 -37 -170v-350q0 -102 -51 -178q-57 -86 -158 -86h-137v133z" />
<glyph unicode="~" horiz-adv-x="0" d="M682 1522q78 86 109 114q72 63 139 64q33 0 78 -37q43 -35 67 -35q43 0 107 70h55l-107 -111q-72 -70 -126 -69q-49 0 -100.5 36.5t-65.5 36.5q-41 0 -95 -69h-61z" />
<glyph unicode="&#xa1;" horiz-adv-x="651" d="M51 72q0 55 60 123l630 733l29 -21l-360 -583l-95 -160q-71 -120 -98 -141q-41 -33 -74 -33q-92 0 -92 82zM762 1075q0 47 43 84q41 35 92 35q37 0 63.5 -24.5t26.5 -63.5q0 -53 -43 -92q-41 -39 -94 -39q-88 0 -88 100z" />
<glyph unicode="&#xa2;" horiz-adv-x="690" d="M14 -186l168 196q-63 43 -63 137q0 184 239 363q223 166 416 166l176 198l17 -14l-160 -188q82 -14 82 -80q0 -49 -29 -94q-31 -47 -84 -47q-59 0 -59 53q0 49 33 67q2 2 61 15q29 6 29 32l-11 19q-12 6 -30 6l-19 -2l-542 -610q14 -14 41 -15q88 0 256 107 q125 78 231 172l20 -25q-102 -102 -241 -184q-170 -100 -281 -100q-29 0 -55 10l-176 -197zM223 80v-23l502 564q-127 -68 -301 -238q-201 -201 -201 -303z" />
<glyph unicode="&#xa3;" horiz-adv-x="1589" d="M-86 76q0 68 129 100q89 25 184 25q96 0 269 -51l67 69q25 25 64 86q39 63 59 90h-291v43h310l237 342q152 199 297 307q186 133 383 134q205 0 205 -189q0 -131 -121 -276q-125 -154 -256 -154q-45 0 -82 31t-37 78q0 83 68 153l131 113v-27q-90 -86 -109 -108 q-61 -74 -61 -133q0 -31 24.5 -55.5t57.5 -24.5q115 0 233 162q111 154 111 274q0 59 -43 96q-41 33 -105 33q-147 0 -303 -143q-115 -106 -252 -312l-188 -301h340v-37h-373q-53 -76 -143 -147q-27 -23 -166 -121l184 -45q106 -25 191 -25q219 0 422 211l16 -18 q-82 -119 -248 -199q-162 -78 -309 -77q-293 0 -395 75q-166 -68 -308 -67q-192 0 -192 88zM-47 78q0 -63 125 -64h51q90 0 242 54q-195 68 -285 67q-133 0 -133 -57z" />
<glyph unicode="&#xa7;" horiz-adv-x="937" d="M-31 4q0 51 29 96q33 51 82 52q57 0 57 -54q0 -35 -31 -41h-55q-39 0 -39 -45q0 -74 70 -73q174 0 285 583q23 137 65 209q49 88 162 148q66 33 256 59q139 219 295 219q47 0 79.5 -26.5t32.5 -73.5q0 -51 -32 -92q-35 -47 -84 -47q-43 0 -43 49q0 39 57 41t57 49 q0 25 -18 47q-18 20 -45 20q-123 0 -174 -229q-20 -102 -74 -322q-66 -242 -162 -335q-115 -113 -348 -115q-72 -100 -133 -150q-82 -68 -182 -67q-43 0 -76 28q-31 29 -31 70zM418 168l10 -14h12q119 0 195 106q55 76 100 234l53 229l25 86q16 59 16 86q0 14 -20 14 q-106 0 -178 -90q-55 -68 -92 -198l-52 -205q-42 -146 -69 -248z" />
<glyph unicode="&#xa8;" horiz-adv-x="0" d="M141 938q0 47 35 80t80 33q37 0 59 -21q25 -23 25 -53q0 -45 -37 -82q-35 -35 -82 -35q-80 0 -80 78zM451 946q0 47 41 78q39 29 83 29q68 0 68 -78q0 -45 -35 -78q-39 -35 -82 -35q-75 0 -75 84z" />
<glyph unicode="&#xa9;" horiz-adv-x="1484" d="M31 629q0 272 192.5 464.5t464.5 192.5q268 0 465 -192q193 -190 193 -465q0 -272 -192.5 -465t-465 -193t-465 193t-192.5 465zM109 629q0 -238 170 -412q168 -170 409.5 -170t411.5 170t170 411.5t-170 411.5t-412 170t-409 -172q-170 -173 -170 -409zM334 612 q0 158 100 267q102 113 254 112q37 0 100 -18q57 -16 101 -17q39 0 45 31h37l8 -244h-39q-15 86 -80 142q-66 55 -149 55q-119 0 -193 -106q-63 -94 -63 -220q0 -133 63 -211q68 -86 197 -86q141 0 246 103l22 -35q-141 -141 -287 -141q-162 0 -264 102q-98 98 -98 266z" />
<glyph unicode="&#xaa;" horiz-adv-x="978" d="M113 119q0 193 233 375q223 172 422 172q100 0 100 -80q0 -16 -6 -35l70 94h184l-242 -305q-180 -236 -194 -297q10 -10 18 -10q104 0 361 252l20 -27q-70 -80 -188 -166q-145 -106 -215 -106q-41 0 -78 37q-35 35 -35 77q0 20 25 101q-70 -84 -160 -142 q-113 -74 -195 -73q-55 0 -87.5 39t-32.5 94zM213 51q0 -35 39 -35q104 0 341.5 233.5t237.5 338.5q0 33 -36 33q-102 0 -340 -236q-242 -238 -242 -334z" />
<glyph unicode="&#xab;" horiz-adv-x="1019" d="M231 340l510 260v-31l-348 -235l-24 -246h-27zM578 340l505 260l11 -37l-357 -229l-18 -240l-29 -10z" />
<glyph unicode="&#xac;" horiz-adv-x="1337" d="M-31 444v105h1266v-549h-105v444h-1161z" />
<glyph unicode="&#xad;" horiz-adv-x="608" d="M176 287l98 127h496l-90 -127h-504z" />
<glyph unicode="&#xae;" horiz-adv-x="1484" d="M29 618.5q0 272.5 192.5 465t464.5 192.5t464.5 -192.5t192.5 -465t-192.5 -465t-464.5 -192.5t-464.5 192.5t-192.5 465zM106 616q0 -240 170 -407q174 -170 410 -170q238 0 412 170q170 168 170 409q0 240 -172 412q-170 170 -412 170t-410 -172q-168 -170 -168 -412z M373 287v35q92 0 92 49v549q0 47 -21 55q-6 2 -61 2v35h326q260 0 260 -178q0 -80 -58 -136q-57 -53 -137 -57l230 -293q20 -27 67 -26v-35h-180l-254 338h-49v-248q0 -55 90 -55v-35h-305zM586 934l2 -266q115 6 164 26q88 35 88 127q0 96 -64 127q-45 23 -149 23 q-41 0 -41 -37z" />
<glyph unicode="&#xb0;" horiz-adv-x="487" d="M682 1018q0 117 86 201q88 84 201 84q117 0 200 -84q86 -86 86 -201q0 -119 -84 -201q-88 -84 -202.5 -84t-202.5 84q-84 82 -84 201zM760 1018q0 -86 61.5 -147.5t147.5 -61.5t147.5 61.5t61.5 147.5t-64 147q-66 61 -147 62q-84 0 -145.5 -61.5t-61.5 -147.5z" />
<glyph unicode="&#xb1;" horiz-adv-x="1030" d="M-27 0v104h1008v-104h-1008zM-27 672v104h453v453h104v-453h451v-104h-451v-451h-104v451h-453z" />
<glyph unicode="&#xb2;" d="M-115 10q96 80 332 254l248 170q147 111 276 242q178 187 179 295q0 68 -68 67q-133 0 -305 -137q-176 -145 -176 -274q0 -66 53 -66q127 0 283 275l10 2q14 -4 14 -7q-18 -90 -115 -192q-106 -111 -190 -111q-33 0 -66 33q-31 31 -30 68q0 158 178 303q168 137 332 137 q78 0 121 -47t43 -125q0 -209 -189 -356q-100 -80 -395 -217q-266 -125 -361 -226q160 57 222 58q43 0 127 -31q78 -29 127 -29q57 0 143 129l27 -12q-41 -96 -119 -160q-90 -68 -187 -67q-55 0 -159 37q-111 39 -160 38q-86 0 -178 -73z" />
<glyph unicode="&#xb3;" d="M-49 115q0 29 24 53q23 23 56 22q47 0 47 -67q0 -27 -37 -33q-39 -6 -39 -22q0 -47 70 -48q123 0 338 183q221 186 221 303q0 28 -25 43q-6 2 -22 2q-37 0 -215 -82l-13 8q0 8 4 12q12 10 78 41q59 25 203 113q94 76 164 156q98 113 98 190q0 47 -67 47q-88 0 -226 -88 q-147 -96 -147 -176q0 -16 16 -39q14 -20 35 -20q113 0 225 172l25 -15q-117 -188 -256 -188q-35 0 -57.5 22.5t-22.5 57.5q0 123 152 219q139 88 266 88q68 0 115 -31q51 -37 51 -102q0 -127 -150 -227q-72 -51 -262 -129q61 -6 102 -33q51 -33 52 -90q0 -190 -242 -338 q-213 -131 -422 -131q-139 0 -139 127z" />
<glyph unicode="&#xb4;" horiz-adv-x="0" d="M279 840l141 227h198l-288 -227h-51z" />
<glyph unicode="&#xb5;" horiz-adv-x="1081" d="M14 -291q0 49 29 154q27 98 27 153v936h163v-633q0 -219 181 -219q59 0 123 45q68 47 90 101v706h164v-729q0 -53 22 -102q31 -59 80 -60q51 0 74 45l28 89h37q-49 -225 -229 -226q-86 0 -125 56q-29 37 -49 131q-52 -77 -129 -129q-88 -59 -172 -60q-53 0 -105 29 q-10 6 -86 65v-45q0 -53 31 -151t31 -154q0 -49 -21 -88q-25 -47 -72 -47q-45 0 -69 45q-23 39 -23 88z" />
<glyph unicode="&#xb6;" horiz-adv-x="1363" d="M180 1038q0 199 129 305q125 102 324 103h471v-111h-70v-1677h-119v1677h-294v-1677h-119v995q-154 25 -238 127t-84 258z" />
<glyph unicode="&#xb8;" horiz-adv-x="0" d="M-578 -414q83 25 160 74q102 63 103 129q0 12 -10.5 39t-10.5 39q0 39 43 78q41 39 84 39q74 0 74 -76q0 -117 -164 -225q-123 -83 -270 -123q-9 6 -9 26z" />
<glyph unicode="&#xb9;" d="M180 6l438 475l441 471q-322 -211 -742 -432l-12 27q586 334 844 512h33l-387 -524l-385 -529h-230z" />
<glyph unicode="&#xba;" horiz-adv-x="733" d="M119 131q0 182 223 363q215 172 401 172q33 0 57.5 -25t24.5 -57q0 -84 -98 -248q37 -37 88 -37q8 0 29 4v-29q-10 -2 -47 -2q-53 0 -99 35q-84 -121 -196 -211q-139 -109 -256 -108q-127 0 -127 143zM211 57q0 -43 43 -43q94 0 238 123q104 90 194 201q-2 8 -2 29 q0 66 29 110q10 16 55 51q29 23 29 50q0 45 -41 45q-92 0 -320 -236q-225 -234 -225 -330z" />
<glyph unicode="&#xbb;" horiz-adv-x="1019" d="M127 117q86 37 358 235l17 236l28 14q76 -135 111 -262l-500 -256zM475 115l356 231l19 246h33l108 -252l-506 -256z" />
<glyph unicode="&#xbf;" d="M98 184q0 178 146 314q78 72 297 196q164 94 327 246l25 -25q-70 -74 -215 -215q-469 -414 -469 -608q0 -70 59 -69q117 0 275 135q156 135 155 252q0 61 -51 61q-66 0 -207 -152l-14 17q27 59 98 113q74 55 135 55q90 0 91 -105q0 -133 -177 -274q-168 -133 -305 -133 q-82 0 -127 57q-43 52 -43 135zM903 1075q0 55 35 92q37 39 88 39q35 0 68 -26q35 -29 34 -60q0 -49 -41 -94q-39 -43 -92 -43q-92 0 -92 92z" />
<glyph unicode="&#xc0;" horiz-adv-x="1388" d="M-39 102q0 57 39 117q41 61 100 62q63 0 64 -64q0 -61 -62 -76q-6 0 -32 11l-27 10q-47 0 -47 -66q0 -37 41 -59q33 -20 72 -21q111 0 249 88q45 27 217 162q-180 217 -180 434q0 131 60 226q70 106 196 106q229 0 344 -336q319 340 406 422q305 287 463 287q2 0 7 -1 t13 -2t17 -1l14 -8l-2 -9q-41 -45 -76 -98l-65 -104q-236 -344 -680 -1049q158 53 223 146l22 -21q-34 -61 -116 -111q-68 -39 -154 -53l-59 -88h-191l60 90l-63 25.5t-46 18.5t-18 7q-61 27 -117 70l-27 21q-287 -258 -512 -258q-53 0 -92 34q-41 35 -41 88zM440 686 q0 -215 170 -391q213 201 355 367q-23 117 -101 212q-86 106 -200 107q-106 0 -168 -98q-56 -84 -56 -197zM637 266q84 -70 119 -86q35 -18 141 -41q84 174 84 385q0 55 -8 88zM981 260q287 397 678 862l133 158q35 39 61 80l-6 8h-12q-114 0 -430 -301q-92 -89 -399 -412 q6 -83 6 -153q0 -39 -31 -242zM1352 1714h219l51 -229h-39z" />
<glyph unicode="&#xc1;" horiz-adv-x="1388" d="M-39 102q0 57 39 117q41 61 100 62q63 0 64 -64q0 -61 -62 -76q-6 0 -32 11l-27 10q-47 0 -47 -66q0 -37 41 -59q33 -20 72 -21q111 0 249 88q45 27 217 162q-180 217 -180 434q0 131 60 226q70 106 196 106q229 0 344 -336q319 340 406 422q305 287 463 287q2 0 7 -1 t13 -2t17 -1l14 -8l-2 -9q-41 -45 -76 -98l-65 -104q-236 -344 -680 -1049q158 53 223 146l22 -21q-34 -61 -116 -111q-68 -39 -154 -53l-59 -88h-191l60 90l-63 25.5t-46 18.5t-18 7q-61 27 -117 70l-27 21q-287 -258 -512 -258q-53 0 -92 34q-41 35 -41 88zM440 686 q0 -215 170 -391q213 201 355 367q-23 117 -101 212q-86 106 -200 107q-106 0 -168 -98q-56 -84 -56 -197zM637 266q84 -70 119 -86q35 -18 141 -41q84 174 84 385q0 55 -8 88zM981 260q287 397 678 862l133 158q35 39 61 80l-6 8h-12q-114 0 -430 -301q-92 -89 -399 -412 q6 -83 6 -153q0 -39 -31 -242zM1440 1485l119 219l237 -6l-307 -217z" />
<glyph unicode="&#xc2;" horiz-adv-x="1388" d="M-39 102q0 57 39 117q41 61 100 62q63 0 64 -64q0 -61 -62 -76q-6 0 -32 11l-27 10q-47 0 -47 -66q0 -37 41 -59q33 -20 72 -21q111 0 249 88q45 27 217 162q-180 217 -180 434q0 131 60 226q70 106 196 106q229 0 344 -336q319 340 406 422q305 287 463 287q2 0 7 -1 t13 -2t17 -1l14 -8l-2 -9q-41 -45 -76 -98l-65 -104q-236 -344 -680 -1049q158 53 223 146l22 -21q-34 -61 -116 -111q-68 -39 -154 -53l-59 -88h-191l60 90l-63 25.5t-46 18.5t-18 7q-61 27 -117 70l-27 21q-287 -258 -512 -258q-53 0 -92 34q-41 35 -41 88zM440 686 q0 -215 170 -391q213 201 355 367q-23 117 -101 212q-86 106 -200 107q-106 0 -168 -98q-56 -84 -56 -197zM637 266q84 -70 119 -86q35 -18 141 -41q84 174 84 385q0 55 -8 88zM981 260q287 397 678 862l133 158q35 39 61 80l-6 8h-12q-114 0 -430 -301q-92 -89 -399 -412 q6 -83 6 -153q0 -39 -31 -242zM1266 1505q92 35 221 119l211 145l20 -272h-37l-86 98l-243 -98z" />
<glyph unicode="&#xc3;" horiz-adv-x="1388" d="M-39 102q0 57 39 117q41 61 100 62q63 0 64 -64q0 -61 -62 -76q-6 0 -32 11l-27 10q-47 0 -47 -66q0 -37 41 -59q33 -20 72 -21q111 0 249 88q45 27 217 162q-180 217 -180 434q0 131 60 226q70 106 196 106q229 0 344 -336q319 340 406 422q305 287 463 287q2 0 7 -1 t13 -2t17 -1l14 -8l-2 -9q-41 -45 -76 -98l-65 -104q-236 -344 -680 -1049q158 53 223 146l22 -21q-34 -61 -116 -111q-68 -39 -154 -53l-59 -88h-191l60 90l-63 25.5t-46 18.5t-18 7q-61 27 -117 70l-27 21q-287 -258 -512 -258q-53 0 -92 34q-41 35 -41 88zM440 686 q0 -215 170 -391q213 201 355 367q-23 117 -101 212q-86 106 -200 107q-106 0 -168 -98q-56 -84 -56 -197zM637 266q84 -70 119 -86q35 -18 141 -41q84 174 84 385q0 55 -8 88zM981 260q287 397 678 862l133 158q35 39 61 80l-6 8h-12q-114 0 -430 -301q-92 -89 -399 -412 q6 -83 6 -153q0 -39 -31 -242zM1290 1522q66 76 109 114q72 63 139 64q31 0 78 -37q43 -35 65 -35q51 0 107 70h57l-106 -111q-76 -70 -129 -69q-49 0 -100.5 36.5t-63.5 36.5q-45 0 -96 -69h-60z" />
<glyph unicode="&#xc4;" horiz-adv-x="1388" d="M-43 106q0 59 39 115q43 57 102.5 57.5t59.5 -63.5q0 -29 -17 -47q-20 -27 -43 -27q-14 0 -55 23q-53 0 -53 -68q0 -31 33 -57q31 -25 65 -25q199 0 485 256q-186 225 -186 439q0 127 66 221q74 100 196 100q119 0 217 -110q80 -88 125 -220l416 420q299 285 467 285 q23 0 33 -10q-6 -29 -138 -211q-178 -252 -682 -1045q135 31 226 135l20 -20q-43 -58 -123 -104q-84 -49 -153 -58l-49 -84q-23 -2 -97 -2q-76 0 -98 2l57 90q-82 35 -139 64q-82 41 -129 78q-311 -260 -489 -260q-66 0 -109 30q-47 33 -47 96zM434 688q0 -203 168 -393 q227 190 361 373q-100 315 -306 315q-104 0 -168 -98q-55 -86 -55 -197zM629 270q137 -135 252 -131h6q92 147 92 389q0 35 -8 88q-115 -127 -342 -346zM973 248q338 467 631 815q3 3 129 141q86 92 114 148v6q0 8 -12 8q-113 0 -434 -299q-258 -242 -397 -412 q0 -41 2 -75.5t2 -77.5q0 -98 -35 -254zM1704 1595v23q0 41 41 76q37 31 82 30q74 0 74 -84q0 -43 -37 -77q-35 -33 -82 -33q-29 0 -53.5 18t-24.5 47zM2011 1604q0 51 37 84q39 35 88 34q74 0 74 -80q0 -51 -35 -79q-37 -31 -84 -31q-80 0 -80 72z" />
<glyph unicode="&#xc5;" horiz-adv-x="1388" d="M-43 106q0 61 37 113q39 57 98 57q68 0 68 -63q0 -53 -62 -70q-4 0 -28 11l-23 8q-55 0 -55 -56q0 -92 125 -92q98 0 241 90q113 70 213 162l-66.5 110.5t-46 73t-14.5 23.5q-55 111 -55 238q0 131 64 219q70 100 196 100q119 0 217 -108q76 -86 125 -220 q344 346 418 414q319 289 463 289q25 0 33 -12v-9q-18 -39 -99 -155l-207 -295q-311 -461 -514 -795q70 12 125 49q41 31 101 91l24 -25q-80 -123 -278 -158l-56 -88h-188l57 90q-164 63 -268 144q-299 -260 -508 -260q-55 0 -96 34.5t-41 89.5zM436 684q0 -200 166 -393 q231 199 359 373q-29 119 -101 208q-90 109 -194 109q-111 0 -174 -96q-56 -82 -56 -201zM629 266q84 -59 123 -84q66 -39 139 -45q88 172 88 385q0 39 -8 96zM977 258q428 575 723 920q61 61 147 176v4q0 8 -12 8q-119 0 -432 -295q-74 -70 -402 -409q4 -51 5 -144 q0 -88 -29 -260zM1817 1616q0 55 57 100q57 41 111 41q49 0 81.5 -32.5t32.5 -79.5q0 -68 -49 -117q-47 -47 -115 -47q-118 0 -118 135zM1868 1591q0 -66 69 -65q45 0 80 41t35 84q0 27 -24 45q-23 16 -52 16q-41 0 -75 -41q-33 -39 -33 -80z" />
<glyph unicode="&#xc6;" horiz-adv-x="1794" d="M-88 106q0 66 33 113q37 55 100 55q20 0 41 -18q23 -18 23 -37q0 -53 -39 -72q-3 -3 -74 -18q-39 -8 -39 -37q0 -72 80 -72q49 0 127 74l106 117q-233 231 -233 502q0 129 63 213q72 96 195 96q219 0 358 -358q358 397 371 407q229 233 428 338q59 33 86 33q35 0 35 -25 q0 -6 -90 -157q231 164 432 163q162 0 162 -100q0 -129 -158 -260q-154 -129 -285 -129q-98 0 -98 72q0 49 51 106t101 72l8 -19q-129 -72 -129 -153q0 -47 65 -47q106 0 254 120q156 125 156 224q0 86 -96 86q-141 0 -344 -154q-213 -160 -213 -297q0 -92 100 -135 q20 0 41.5 1t33 2t17.5 1q35 0 59 -18l2 -9l-4 -8q-14 -14 -41 -14q-41 0 -124 24q-184 -57 -394 -243q-238 -213 -237 -375q0 -156 211 -156q65 0 110 6q166 20 338 121q205 121 205 267q0 55 -41 90q-39 33 -98 32q-291 0 -568 -344l-24 11q98 162 242 258 q156 106 331 106q74 0 129 -37q63 -43 64 -110q0 -184 -232 -316q-197 -115 -399 -114q-145 0 -209 28q-94 43 -113 166l-104 -170h-180l49 88q-139 25 -250 92q-96 -104 -127 -133q-84 -72 -162 -71q-43 0 -73 41q-29 38 -29 81zM86 694q0 -246 211 -454l326 385 q-33 125 -107 227q-89 123 -203 123q-111 0 -172 -88q-55 -76 -55 -193zM326 223q49 -51 112 -69l131 -21q63 158 64 320q0 31 -4 129zM653 256q391 553 695 918q178 213 174 223l-2 4h-11q-22 0 -123 -62q-152 -94 -380 -335q-41 -41 -347 -388q8 -66 9 -176 q-1 -43 -15 -184zM1102 700q123 59 340 101q-61 16 -103 71q-41 57 -34 121z" />
<glyph unicode="&#xc7;" horiz-adv-x="1425" d="M98 -422l1 3q1 3 1 5q88 29 158 76q100 63 100 127q0 12 -10 37q-8 18 -8 35q0 43 41 84q39 39 84 39q76 0 76 -76q0 -117 -164 -225q-123 -80 -273 -123q-6 6 -6 18zM373 1034q0 219 231 340q188 100 426 101q170 0 305 -52l-10 -18q-180 33 -258 33q-206 0 -412 -105 q-244 -121 -243 -307q0 -131 96 -195q68 -47 213 -73q233 246 506 426q348 229 602 229q156 0 156 -108q0 -137 -232 -306q-303 -219 -850 -286q-301 -319 -301 -520q0 -180 215 -181q184 0 383 119q225 133 225 305q0 53 -45 86q-47 35 -98 35q-307 0 -543 -426l-22 8 q72 186 215 314q158 139 346 139q68 0 123 -43q59 -49 59 -117q0 -190 -246 -332q-217 -121 -421 -120q-137 0 -226 71q-94 78 -94 215q0 190 217 455q-137 23 -221 96q-96 86 -96 217zM928 750q502 55 794 266q233 169 234 276q0 92 -111 92q-193 0 -502 -235 q-251 -190 -415 -399z" />
<glyph unicode="&#xc8;" horiz-adv-x="1304" d="M326 287q0 389 667 524l-47 68q-451 6 -450 266q0 158 153 254q131 82 301 82q113 0 258 -51l-10 -17q-111 29 -190 29q-143 0 -295 -74q-174 -86 -174 -221q0 -131 143 -193q104 -43 256 -43q-2 12 -2 54q0 184 291 333q248 125 459 125q141 0 141 -94q0 -113 -174 -231 q-129 -90 -277 -144q-125 -45 -364 -75v-21q0 -23 18 -41q45 4 72 4q55 0 82 -26l2 -11q-16 -29 -43 -28q-41 0 -131 26q-203 -76 -373 -243q-197 -190 -197 -381q0 -78 84 -115q68 -29 150 -29q205 0 403 101q240 119 240 303q0 51 -51 82q-47 27 -99 26q-276 0 -551 -331 l-22 -11l-8 9v10q0 31 106 135q98 94 142 123q152 102 309 102q88 0 145 -37q68 -43 68 -127q0 -125 -152 -241q-121 -92 -266 -140q-117 -39 -274 -38q-152 0 -242 75q-98 85 -98 232zM1020 913q162 18 260 41q119 31 242 99q98 55 166 114q104 92 104 158q0 68 -92 68 q-168 0 -381 -168q-178 -140 -299 -312zM1374 1714h217l51 -229h-36z" />
<glyph unicode="&#xc9;" horiz-adv-x="1304" d="M330 287q0 389 667 524l-47 68q-451 6 -450 266q0 158 153 254q131 82 301 82q113 0 258 -51l-10 -17q-111 29 -190 29q-143 0 -295 -74q-174 -86 -174 -221q0 -131 143 -193q104 -43 256 -43q-2 12 -2 54q0 184 291 333q248 125 459 125q141 0 141 -94q0 -113 -174 -231 q-129 -90 -277 -144q-125 -45 -364 -75v-21q0 -23 18 -41q45 4 72 4q55 0 82 -26l2 -11q-16 -29 -43 -28q-41 0 -131 26q-203 -76 -373 -243q-197 -190 -197 -381q0 -78 84 -115q68 -29 150 -29q205 0 403 101q240 119 240 303q0 51 -51 82q-47 27 -98 26q-281 0 -551 -331 l-23 -11l-8 9v10q0 31 106 135q92 89 142 123q152 102 309 102q88 0 145 -37q68 -43 68 -127q0 -125 -152 -241q-121 -92 -266 -140q-117 -39 -274 -38q-154 0 -244 75q-96 82 -96 232zM1024 913q158 18 258 41q121 31 244 99q98 55 166 114q104 92 104 158q0 68 -90 68 q-170 0 -383 -168q-178 -140 -299 -312zM1466 1485l119 219l238 -6l-307 -217z" />
<glyph unicode="&#xca;" horiz-adv-x="1304" d="M326 287q0 389 667 524l-47 68q-451 6 -450 266q0 158 153 254q131 82 301 82q113 0 258 -51l-10 -17q-111 29 -190 29q-143 0 -295 -74q-174 -86 -174 -221q0 -131 143 -193q104 -43 256 -43q-2 12 -2 54q0 184 291 333q248 125 459 125q141 0 141 -94q0 -113 -174 -231 q-129 -90 -277 -144q-125 -45 -364 -75v-21q0 -23 18 -41q45 4 72 4q55 0 82 -26l2 -11q-16 -29 -43 -28q-41 0 -131 26q-203 -76 -373 -243q-197 -190 -197 -381q0 -78 84 -115q68 -29 150 -29q205 0 403 101q240 119 240 303q0 51 -51 82q-47 27 -99 26q-276 0 -551 -331 l-22 -11l-8 9v10q0 31 106 135q98 94 142 123q152 102 309 102q88 0 145 -37q68 -43 68 -127q0 -125 -152 -241q-121 -92 -266 -140q-117 -39 -274 -38q-152 0 -242 75q-98 85 -98 232zM1020 913q162 18 260 41q119 31 242 99q98 55 166 114q104 92 104 158q0 68 -92 68 q-168 0 -381 -168q-178 -140 -299 -312zM1286 1505q90 31 221 119l213 145l21 -272h-39l-86 98l-242 -98z" />
<glyph unicode="&#xcb;" horiz-adv-x="1304" d="M332 287q0 389 667 524l-47 68q-451 6 -450 266q0 158 153 254q131 82 301 82q113 0 258 -51l-10 -17q-111 29 -190 29q-143 0 -295 -74q-174 -86 -174 -221q0 -131 143 -193q104 -43 256 -43q-2 12 -2 54q0 184 291 333q248 125 459 125q141 0 141 -94q0 -113 -174 -231 q-129 -90 -277 -144q-125 -45 -364 -75v-21q0 -23 18 -41q45 4 72 4q55 0 82 -26l2 -11q-16 -29 -43 -28q-41 0 -131 26q-203 -76 -373 -243q-197 -190 -196 -381q0 -78 83 -115q68 -29 150 -29q205 0 403 101q240 119 240 303q0 51 -51 82q-47 27 -98 26q-281 0 -551 -331 l-23 -11l-8 9v10q0 31 106 135q92 89 142 123q152 102 309 102q90 0 145 -37q68 -43 68 -127q0 -125 -152 -241q-121 -92 -266 -140q-117 -39 -274 -38q-154 0 -244 75q-96 82 -96 232zM1026 913q158 18 258 41q121 31 244 99q98 55 166 114q104 92 104 158q0 68 -92 68 q-170 0 -383 -168q-174 -136 -297 -312zM1362 1610q0 51 33 84q35 35 84 35q33 0 55 -25q20 -23 20 -57q0 -43 -34 -76q-39 -35 -78 -35q-80 0 -80 74zM1671 1620q0 41 35 76q33 33 78 33q80 0 80 -78q0 -45 -35 -80q-33 -33 -80 -33q-78 0 -78 82z" />
<glyph unicode="&#xcc;" horiz-adv-x="1304" d="M-53 158q0 57 47 104t104 47q66 0 66 -53q0 -92 -66 -92q-20 0 -51 12q-8 4 -16 7l-13 5l-4 2q-10 0 -22 -14q-10 -12 -10 -26q0 -74 104 -111q80 -27 164 -27q481 0 905 731q-217 45 -217 232q0 365 649 399q143 4 299 23q129 37 148 37q4 -2 8 -2l6 -9v-4 q-14 -20 -66 -33l-77 -12q-115 -23 -303 -252q-147 -178 -240 -344q143 45 352 197l15 -23q-145 -139 -396 -215q-74 -127 -225 -364q-279 -389 -821 -389q-340 0 -340 174zM983 956q0 -156 193 -186q154 211 278 336q162 160 356 250q-20 6 -41 6q-326 0 -516 -98 q-270 -142 -270 -308zM1313 1714h217l51 -229h-37z" />
<glyph unicode="&#xcd;" horiz-adv-x="1304" d="M-53 158q0 57 47 104t104 47q66 0 66 -53q0 -92 -66 -92q-20 0 -51 12q-8 4 -16 7l-13 5l-4 2q-10 0 -22 -14q-10 -12 -10 -26q0 -74 104 -111q80 -27 164 -27q481 0 905 731q-217 45 -217 232q0 365 649 399q143 4 299 23q129 37 148 37q4 -2 8 -2l6 -9v-4 q-14 -20 -66 -33l-77 -12q-115 -23 -303 -252q-147 -178 -240 -344q143 45 352 197l15 -23q-145 -139 -396 -215q-74 -127 -225 -364q-279 -389 -821 -389q-340 0 -340 174zM983 956q0 -156 193 -186q154 211 278 336q162 160 356 250q-20 6 -41 6q-326 0 -516 -98 q-270 -142 -270 -308zM1401 1485l119 219l237 -6l-307 -217z" />
<glyph unicode="&#xce;" horiz-adv-x="1304" d="M-53 158q0 57 47 104t104 47q66 0 66 -53q0 -92 -66 -92q-20 0 -51 12q-8 4 -16 7l-13 5l-4 2q-10 0 -22 -14q-10 -12 -10 -26q0 -74 104 -111q80 -27 164 -27q481 0 905 731q-217 45 -217 232q0 365 649 399q143 4 299 23q129 37 148 37q4 -2 8 -2l6 -9v-4 q-14 -20 -66 -33l-77 -12q-115 -23 -303 -252q-147 -178 -240 -344q143 45 352 197l15 -23q-145 -139 -396 -215q-74 -127 -225 -364q-279 -389 -821 -389q-340 0 -340 174zM983 956q0 -156 193 -186q154 211 278 336q162 160 356 250q-20 6 -41 6q-326 0 -516 -98 q-270 -142 -270 -308zM1225 1505q92 31 223 119l211 145l20 -272h-39l-86 98l-241 -98z" />
<glyph unicode="&#xcf;" horiz-adv-x="1304" d="M-53 158q0 57 47 104t104 47q66 0 66 -53q0 -92 -66 -92q-20 0 -51 12q-8 4 -16 7l-13 5l-4 2q-10 0 -22 -14q-10 -12 -10 -26q0 -74 104 -111q80 -27 164 -27q481 0 905 731q-217 45 -217 232q0 365 649 399q143 4 299 23q129 37 148 37q4 -2 8 -2l6 -9v-4 q-14 -20 -66 -33l-77 -12q-115 -23 -303 -252q-147 -178 -240 -344q143 45 352 197l15 -23q-145 -139 -396 -215q-74 -127 -225 -364q-279 -389 -821 -389q-340 0 -340 174zM983 956q0 -156 193 -186q154 211 278 336q162 160 356 250q-20 6 -41 6q-326 0 -516 -98 q-270 -142 -270 -308zM1294 1610q0 51 33 84q35 35 84 35q31 0 53 -25q23 -27 23 -57q0 -43 -35 -76q-39 -35 -78 -35q-80 0 -80 74zM1604 1620q0 41 34 76q33 33 78 33q80 0 80 -78q0 -45 -35 -80q-33 -33 -80 -33q-77 0 -77 82z" />
<glyph unicode="&#xd1;" horiz-adv-x="1388" d="M-57 123q0 49 43 94t92 45q74 0 74 -63q0 -25 -23 -54q-20 -27 -47 -26q-43 0 -64 14q-31 -12 -30 -53q0 -23 30 -45q28 -18 56 -19q131 0 366 258q147 160 420 525q254 342 328 411q131 129 248 189q-72 -94 -105 -234l-47 -252q-80 -390 -197 -596q-40 -65 -110 -202 q162 164 450 598q205 305 277 397q221 287 334 287q119 0 119 -115q0 -55 -31 -92q-33 -39 -90 -39q-55 0 -56 68q0 45 60 53q61 10 61 41q0 53 -63 53q-141 0 -570 -657l-165 -248q-94 -133 -183 -238q-80 -92 -119 -131q-74 -74 -135 -112q63 119 105 274l59 287 q55 254 113 399q68 170 200 365q-141 -100 -358 -390l-252 -346q-190 -258 -289 -358q-217 -225 -376 -225q-125 0 -125 137zM1288 1522q66 76 109 114q72 63 139 64q33 0 78 -37q43 -35 65 -35q51 0 107 70h57l-106 -111q-76 -70 -129 -69q-47 0 -100.5 36.5t-63.5 36.5 q-45 0 -96 -69h-60z" />
<glyph unicode="&#xd2;" horiz-adv-x="1140" d="M66 322q0 206 178 436q137 176 350 334q436 322 815 321q104 0 168 -45q74 -52 74 -147q0 -86 -64 -156q-59 -66 -145 -90l-10 18q80 33 124 92q53 66 54 144q0 147 -207 147q-256 0 -563 -239q-231 -182 -441 -451q-246 -313 -245 -481q0 -188 198 -189q236 0 512 234 q223 188 379 436q117 184 117 299q0 51 -29 92q-31 47 -82 47q-131 0 -325 -176q-197 -178 -197 -307q0 -53 76 -53q98 0 221 137q88 96 154 227l28 -8q-68 -156 -166 -256q-127 -129 -266 -129q-49 0 -76 45q-23 39 -22 90q0 160 205 316q193 147 358 147q76 0 117 -47 q39 -45 39 -123q0 -242 -322 -584q-311 -330 -557 -393q-92 -25 -170 -24q-141 0 -215 100q-65 91 -65 236zM1255 1714h220l51 -229h-37z" />
<glyph unicode="&#xd3;" horiz-adv-x="1140" d="M68 322q0 203 180 436q139 180 348 334q436 322 815 321q104 0 168 -45q74 -52 74 -147q0 -86 -64 -156q-59 -66 -145 -90l-10 18q80 33 125 92q53 66 53 144q0 147 -207 147q-256 0 -563 -239q-231 -182 -441 -451q-246 -313 -245 -481q0 -188 198 -189q236 0 512 234 q223 188 379 436q117 184 117 299q0 51 -29 92q-31 47 -82 47q-131 0 -325 -176q-197 -178 -197 -307q0 -53 76 -53q96 0 219 137q92 100 156 227l28 -8q-68 -156 -166 -256q-125 -129 -266 -129q-49 0 -76 45q-23 39 -22 90q0 160 205 316q195 147 358 147q76 0 117 -47 q39 -45 39 -123q0 -242 -322 -584q-311 -330 -557 -393q-92 -25 -170 -24q-141 0 -215 100q-65 91 -65 236zM1346 1485l120 219l238 -6l-309 -217z" />
<glyph unicode="&#xd4;" horiz-adv-x="1140" d="M66 322q0 206 178 436q137 176 350 334q436 322 815 321q104 0 168 -45q74 -52 74 -147q0 -86 -64 -156q-59 -66 -145 -90l-10 18q80 33 124 92q53 66 54 144q0 147 -207 147q-256 0 -563 -239q-231 -182 -441 -451q-246 -313 -245 -481q0 -188 198 -189q236 0 512 234 q223 188 379 436q117 184 117 299q0 51 -29 92q-31 47 -82 47q-131 0 -325 -176q-197 -178 -197 -307q0 -53 76 -53q98 0 221 137q88 96 154 227l28 -8q-68 -156 -166 -256q-127 -129 -266 -129q-49 0 -76 45q-23 39 -22 90q0 160 205 316q193 147 358 147q76 0 117 -47 q39 -45 39 -123q0 -242 -322 -584q-311 -330 -557 -393q-92 -25 -170 -24q-141 0 -215 100q-65 91 -65 236zM1169 1505q86 29 222 119l213 145l20 -272h-39l-86 98l-244 -98z" />
<glyph unicode="&#xd5;" horiz-adv-x="1140" d="M66 322q0 206 178 436q137 176 350 334q436 322 815 321q104 0 168 -45q74 -52 74 -147q0 -86 -64 -156q-59 -66 -145 -90l-10 18q80 33 124 92q53 66 54 144q0 147 -207 147q-256 0 -563 -239q-231 -182 -441 -451q-246 -313 -245 -481q0 -188 198 -189q236 0 512 234 q223 188 379 436q117 184 117 299q0 51 -29 92q-31 47 -82 47q-131 0 -325 -176q-197 -178 -197 -307q0 -53 76 -53q98 0 221 137q88 96 154 227l28 -8q-68 -156 -166 -256q-127 -129 -266 -129q-49 0 -76 45q-23 39 -22 90q0 160 205 316q193 147 358 147q76 0 117 -47 q39 -45 39 -123q0 -242 -322 -584q-311 -330 -557 -393q-92 -25 -170 -24q-141 0 -215 100q-65 91 -65 236zM1196 1522q86 96 109 114q72 63 137 64q33 0 78 -37q43 -35 65 -35q45 0 109 70h55l-107 -111q-76 -70 -124 -69q-51 0 -102.5 36.5t-63.5 36.5q-29 0 -56 -22 q-41 -45 -43 -47h-57z" />
<glyph unicode="&#xd6;" horiz-adv-x="1140" d="M59 317q0 250 240 521q217 244 532 411q317 168 566 168q111 0 174 -45q76 -55 76 -158q0 -80 -66 -149q-61 -66 -141 -88l-8 24q74 16 124 89q49 70 50 145q0 145 -209 145q-303 0 -692 -358q-184 -168 -347 -381q-213 -281 -213 -444q0 -180 201 -181q176 0 422 172 q231 160 408 390q182 238 182 411q0 57 -33 96t-90 39q-133 0 -321.5 -176t-188.5 -309q0 -16 23 -35q18 -16 38 -16q111 0 234 137q88 100 160 236l6 -9l6 -4h12q-53 -133 -166 -254q-133 -137 -258 -137q-106 0 -106 125q0 172 194 328q186 150 363 149q70 0 117 -47 q45 -45 45 -117q0 -154 -150 -370q-109 -156 -268 -314q-338 -326 -641 -325q-141 0 -211 100q-64 88 -64 231zM1382 1618q0 41 35 80q33 35 78 35q84 0 84 -80q0 -45 -35 -80t-80 -35q-82 0 -82 80zM1692 1628q0 43 41 74q35 27 79 27q76 0 76 -74q0 -45 -33 -80 q-33 -37 -77 -37q-86 0 -86 90z" />
<glyph unicode="&#xd8;" horiz-adv-x="1224" d="M-76 133l201 125q0 72 2 86q12 131 72 250q147 301 526 557q387 262 715 262q221 0 264 -156l186 113l17 -31l-205 -135q-23 -92 -55 -131q-23 -29 -115 -82q-29 -16 -37 -16t-8 10q0 2 2 4t2 4q82 61 98 78q45 47 70 107l-207 -134q-4 -137 -55 -249q-31 -70 -137 -217 q-426 -592 -861 -592q-102 0 -176 61q-72 59 -88 164l-188 -111zM201 195q0 -82 57 -131.5t139 -49.5q197 0 443 172q233 164 397 398q174 244 174 440l-166 -104q-61 -132 -160 -234q-123 -125 -241 -125q-72 0 -90 43l-543 -334q-10 -40 -10 -75zM233 330l502 307 q-2 20 -2 65q0 154 205 308q190 145 352 145q80 0 142 -76l235 154q-18 92 -78 125q-47 27 -145 26q-195 0 -471 -190q-256 -178 -463 -422q-216 -252 -277 -442zM782 629q29 -43 70 -43q94 0 201 106q88 88 137 193zM788 678l609 383q-29 70 -111 69q-125 0 -301 -163 q-175 -163 -197 -289z" />
<glyph unicode="&#xd9;" horiz-adv-x="1464" d="M356 963q0 186 226 329q203 129 399 129q109 0 190 -53q92 -61 93 -164q0 -141 -211 -403q-65 -80 -394 -443q-211 -231 -210 -295q0 -49 45 -49q227 0 759 578q439 476 639 805h193l-596 -785l-279 -354q-55 -72 -129 -195q-2 -6 -5 -11t-4 -8l-1 -3q0 -27 43 -27 q98 0 440 275l19 -19q-356 -285 -469 -284q-117 0 -117 114q0 82 82 203l135 182l-334 -305q-236 -195 -381 -194q-49 0 -83 41q-33 39 -33 94q0 125 207 375l383 434q205 242 204 354q0 117 -202 117q-180 0 -369 -133q-205 -143 -205 -318q0 -52 37 -86q35 -33 88 -33 q150 0 285 160q119 143 153 301h25q-39 -160 -96 -258q-72 -119 -199 -184q-98 -49 -164 -49q-72 0 -117 45q-47 47 -47 117zM1454 1714h217l51 -229h-36z" />
<glyph unicode="&#xda;" horiz-adv-x="1464" d="M356 963q0 186 226 329q203 129 399 129q109 0 190 -53q92 -61 93 -164q0 -141 -211 -403q-65 -80 -394 -443q-211 -231 -210 -295q0 -49 45 -49q227 0 759 578q439 476 639 805h193l-596 -785l-279 -354q-55 -72 -129 -195q-2 -6 -5 -11t-4 -8l-1 -3q0 -27 43 -27 q98 0 440 275l19 -19q-356 -285 -469 -284q-117 0 -117 114q0 82 82 203l135 182l-334 -305q-236 -195 -381 -194q-49 0 -83 41q-33 39 -33 94q0 125 207 375l383 434q205 242 204 354q0 117 -202 117q-180 0 -369 -133q-205 -143 -205 -318q0 -52 37 -86q35 -33 88 -33 q150 0 285 160q119 143 153 301h25q-39 -160 -96 -258q-72 -119 -199 -184q-98 -49 -164 -49q-72 0 -117 45q-47 47 -47 117zM1542 1485l119 219l237 -6l-307 -217z" />
<glyph unicode="&#xdb;" horiz-adv-x="1464" d="M356 963q0 186 226 329q203 129 399 129q109 0 190 -53q92 -61 93 -164q0 -141 -211 -403q-65 -80 -394 -443q-211 -231 -210 -295q0 -49 45 -49q227 0 759 578q439 476 639 805h193l-596 -785l-279 -354q-55 -72 -129 -195q-2 -6 -5 -11t-4 -8l-1 -3q0 -27 43 -27 q98 0 440 275l19 -19q-356 -285 -469 -284q-117 0 -117 114q0 82 82 203l135 182l-334 -305q-236 -195 -381 -194q-49 0 -83 41q-33 39 -33 94q0 125 207 375l383 434q205 242 204 354q0 117 -202 117q-180 0 -369 -133q-205 -143 -205 -318q0 -52 37 -86q35 -33 88 -33 q150 0 285 160q119 143 153 301h25q-39 -160 -96 -258q-72 -119 -199 -184q-98 -49 -164 -49q-72 0 -117 45q-47 47 -47 117zM1366 1505q96 35 223 119l211 145l23 -272h-39l-88 98l-242 -98z" />
<glyph unicode="&#xdc;" horiz-adv-x="1464" d="M354 961q0 190 221 335q199 131 402 131q123 0 201 -59q88 -63 88 -182t-211 -381q-31 -37 -396 -449q-211 -236 -210 -293q0 -49 40 -49q162 0 455 267q141 129 393 401q133 145 289 352l270 369h201l-606 -785l-234 -294q-190 -242 -186 -277l8 -16q12 -10 35 -11 q57 0 221 115l215 160l17 -31q-332 -285 -461 -284q-123 0 -123 120q0 80 86 205l139 184q-12 -6 -121 -118q-129 -137 -274 -242q-200 -147 -313 -147q-125 0 -125 141q0 131 205 379l378 424q205 242 205 364q0 55 -76 84q-53 20 -122 21q-174 0 -367 -133 q-209 -143 -209 -312q0 -49 35 -84t86 -35q162 0 311 185q68 82 127 282h31q-37 -200 -148 -337q-131 -162 -315 -162q-162 0 -162 162zM1417 1614q0 46 37 80q35 33 82 32q78 0 78 -81q0 -46 -37 -80q-35 -33 -84 -33q-76 0 -76 82zM1726 1618q0 40 37 74q35 33 76 32 q84 0 84 -77q0 -41 -35 -80q-33 -35 -78 -35q-84 0 -84 86z" />
<glyph unicode="&#xdd;" horiz-adv-x="1304" d="M950 1776l238 -6l-305 -217l-52 4zM-47 -397q0 129 305 266q213 98 428 147q10 16 227 287q133 164 211 299q-158 -158 -301 -260q-217 -160 -346 -160q-115 0 -115 144q0 139 177 333l329 332q176 184 176 291q0 117 -194 117q-190 0 -404 -115q-244 -133 -243 -305 q0 -49 39 -80q41 -31 90 -31q131 0 293 119q150 111 213 240q16 41 28 61h23q-4 -12 -15 -37q-68 -168 -212 -282q-154 -123 -326 -123q-166 0 -166 141q0 195 260 330q219 113 436 113q233 0 234 -203q0 -175 -172 -387q-68 -84 -324 -330q-172 -170 -172 -236 q0 -59 57 -59q250 0 1127 950l242 236h174q-473 -451 -1100 -1305q195 84 387 230l20 -31q-182 -145 -450 -256q-139 -207 -348 -361q-240 -176 -459 -176q-129 1 -129 101zM-8 -410q0 -61 94 -61q143 0 320 164q84 78 249 280q-203 -47 -389 -137q-274 -129 -274 -246z" />
<glyph unicode="&#xdf;" horiz-adv-x="937" d="M-535 -524l658 854l328 426q221 287 372 420q254 223 494 223q88 0 88 -101q0 -199 -389 -432q-66 -37 -205 -125q-29 -33 -29 -69q0 -47 29 -119q31 -78 31 -119q0 -205 -221 -340q-169 -104 -277 -104q-43 0 -76 22q-37 25 -37 70q0 51 29 86q31 37 78 37q53 0 53 -47 q0 -39 -16 -56q-12 -12 -51 -24l-5 -4q-16 -6 -16 -25q0 -33 47 -33q35 0 125 66q150 109 219 346l37 205q25 109 111 170q467 326 467 524q0 47 -52 47q-89 0 -233 -141q-96 -94 -250 -293l-182 -244l-946 -1220h-181z" />
<glyph unicode="&#xe0;" horiz-adv-x="978" d="M113 119q0 193 233 375q223 172 422 172q100 0 100 -80q0 -16 -6 -35l70 94h184l-242 -305q-180 -236 -194 -297q10 -10 18 -10q104 0 361 252l20 -27q-70 -80 -188 -166q-145 -106 -215 -106q-41 0 -78 37q-35 35 -35 77q0 20 25 101q-70 -84 -160 -142 q-113 -74 -195 -73q-55 0 -87.5 39t-32.5 94zM213 51q0 -35 39 -35q104 0 341.5 233.5t237.5 338.5q0 33 -36 33q-102 0 -340 -236q-242 -238 -242 -334zM645 1059h201l61 -223h-43z" />
<glyph unicode="&#xe1;" horiz-adv-x="978" d="M113 119q0 193 233 375q223 172 422 172q100 0 100 -80q0 -16 -6 -35l70 94h184l-242 -305q-180 -236 -194 -297q10 -10 18 -10q104 0 361 252l20 -27q-70 -80 -188 -166q-145 -106 -215 -106q-41 0 -78 37q-35 35 -35 77q0 20 25 101q-70 -84 -160 -142 q-113 -74 -195 -73q-55 0 -87.5 39t-32.5 94zM213 51q0 -35 39 -35q104 0 341.5 233.5t237.5 338.5q0 33 -36 33q-102 0 -340 -236q-242 -238 -242 -334zM723 840l143 227h201l-289 -227h-55z" />
<glyph unicode="&#xe2;" horiz-adv-x="978" d="M113 119q0 193 233 375q223 172 422 172q100 0 100 -80q0 -16 -6 -35l70 94h184l-242 -305q-180 -236 -194 -297q10 -10 18 -10q104 0 361 252l20 -27q-70 -80 -188 -166q-145 -106 -215 -106q-41 0 -78 37q-35 35 -35 77q0 20 25 101q-70 -84 -160 -142 q-113 -74 -195 -73q-55 0 -87.5 39t-32.5 94zM213 51q0 -35 39 -35q104 0 341.5 233.5t237.5 338.5q0 33 -36 33q-102 0 -340 -236q-242 -238 -242 -334zM553 846l428 262l29 -262h-39l-88 98l-250 -98h-80z" />
<glyph unicode="&#xe3;" horiz-adv-x="978" d="M115 119q0 193 233 375q225 172 422 172q100 0 100 -80q0 -16 -6 -35l70 94h184l-241 -305q-180 -236 -195 -297q10 -10 18 -10q106 0 361 252l20 -27q-70 -80 -188 -166q-145 -106 -215 -106q-41 0 -78 37q-35 35 -35 77q0 20 25 101q-70 -84 -160 -142 q-115 -74 -194 -73q-55 0 -88 39t-33 94zM215 51q0 -35 39 -35q108 0 344 234q236 233 236 338q0 33 -37 33q-98 0 -340 -236t-242 -334zM549 842l110 114q78 66 138 66q33 0 80 -35t73 -35q41 0 92 70h62l-57.5 -62.5l-37.5 -41.5l-12 -13q-74 -68 -135 -67q-39 0 -88 36.5 t-69 36.5q-41 0 -101 -69h-55z" />
<glyph unicode="&#xe4;" horiz-adv-x="978" d="M111 125q0 203 247 379q227 160 443 160q57 0 57 -82q0 -33 -4 -47l72 108h182q-432 -555 -432 -594q0 -18 18 -18q47 0 189 104q129 100 174 150l22 -27q-84 -84 -194 -164q-145 -106 -215 -106q-37 0 -72 32q-37 33 -37 70q0 35 23 103q-72 -72 -162 -130 q-115 -74 -189 -73q-122 0 -122 135zM207 49q6 -33 41 -33q109 0 346 233.5t237 338.5q0 37 -38 37q-98 0 -338 -236q-236 -234 -248 -340zM764 944q0 47 35 80t84 33q76 0 75 -80q0 -45 -32.5 -78t-77.5 -33q-84 0 -84 78zM1077 930v20q0 37 35 72q33 33 74 33 q31 0 57.5 -24.5t26.5 -55.5q0 -43 -35 -76t-80 -33q-29 0 -53.5 18.5t-24.5 45.5z" />
<glyph unicode="&#xe5;" horiz-adv-x="978" d="M111 125q0 188 235 369q221 170 418 170q94 0 94 -76q0 -27 -4 -41l74 96h178l-238 -309q-193 -254 -192 -287q0 -16 18 -16q52 0 191 104q123 90 172 150l20 -27q-299 -268 -409 -268q-47 0 -76 37q-31 39 -31 84q0 34 19 86q-205 -205 -349 -205q-120 0 -120 133z M209 49q0 -33 43 -33q111 0 344 233.5t233 342.5q0 31 -41 31q-102 0 -339 -238q-240 -240 -240 -336zM913 938q0 66 49.5 115t114.5 49q53 0 86 -33t33 -86q0 -66 -51 -111t-119 -45q-113 0 -113 111zM958 938q0 -68 74 -68q41 0 78 39q37 40 37 80q0 29 -21 49 q-23 23 -49 23q-45 0 -82 -39t-37 -84z" />
<glyph unicode="&#xe6;" horiz-adv-x="1181" d="M98 129q0 186 236 365q225 170 416 170q88 0 88 -78q0 -20 -9 -47l80 106h156l-82 -102q51 43 129 78q92 43 143 43q61 0 62 -60q0 -98 -215 -209q-78 -39 -309 -129q-113 -139 -113 -184q0 -63 49 -64q133 0 287 93l254 176l16 -23q-315 -276 -563 -276q-147 0 -148 164 q0 39 5 59q-121 -102 -172 -139q-117 -82 -197 -82q-113 0 -113 139zM195 45l18 -25q12 -4 27 -4q98 0 333.5 235.5t235.5 336.5q0 39 -41 39q-100 0 -330 -240q-225 -231 -243 -342zM825 313q119 33 267 111q186 100 186 182q0 31 -39 31q-76 0 -219 -131 q-17 -15 -195 -193z" />
<glyph unicode="&#xe7;" horiz-adv-x="690" d="M-307 -422q0 4 2 8q98 35 160 74q100 63 100 129q0 12 -10.5 36.5t-10.5 35.5q0 45 41 84t86 39q76 0 76 -76q0 -117 -164 -225q-127 -84 -272 -123q-8 6 -8 18zM70 147q0 182 237 361q223 168 414 168q119 0 119 -84q0 -49 -29 -94q-31 -47 -84 -47q-59 0 -59 53t32 67 q2 2 60 15q31 6 31 32l-11 19l-12 4l-18 2q-111 0 -342 -231q-233 -233 -234 -340q0 -55 55 -56q86 0 254 107q135 83 234 172l20 -25q-102 -102 -241 -184q-168 -100 -281 -100q-68 0 -109 49q-36 42 -36 112z" />
<glyph unicode="&#xe8;" horiz-adv-x="733" d="M125 133q0 190 246 365q227 164 426 164q82 0 82 -76q0 -86 -224 -197q-154 -77 -307 -123q-33 -31 -72 -92q-45 -70 -45 -102q0 -55 78 -56q109 0 283 95q145 78 250 172l18 -23q-324 -272 -555 -272q-180 0 -180 145zM379 313q141 35 274 107q188 102 189 192 q0 23 -49 23q-70 0 -220 -131q-98 -85 -194 -191zM537 1059h200l60 -223h-39z" />
<glyph unicode="&#xe9;" horiz-adv-x="733" d="M131 133q0 190 246 365q227 164 426 164q82 0 82 -76q0 -86 -223 -197q-154 -77 -308 -123q-33 -31 -71 -92q-45 -74 -45 -102q0 -55 77 -56q109 0 283 95q145 78 250 172l18 -23q-324 -272 -555 -272q-180 0 -180 145zM385 313q141 35 274 107q188 102 189 192 q0 23 -49 23q-70 0 -219 -131q-99 -85 -195 -191zM623 840l141 227h201l-291 -227h-51z" />
<glyph unicode="&#xea;" horiz-adv-x="733" d="M131 133q0 190 246 365q227 164 426 164q82 0 82 -76q0 -86 -223 -197q-154 -77 -308 -123q-33 -31 -71 -92q-45 -74 -45 -102q0 -55 77 -56q109 0 283 95q145 78 250 172l18 -23q-324 -272 -555 -272q-180 0 -180 145zM385 313q141 35 274 107q188 102 189 192 q0 23 -49 23q-70 0 -219 -131q-99 -85 -195 -191zM449 846l430 262l28 -262h-37l-92 98l-248 -98h-81z" />
<glyph unicode="&#xeb;" horiz-adv-x="733" d="M129 133q0 190 246 365q227 164 426 164q82 0 82 -76q0 -86 -224 -197q-154 -77 -307 -123q-33 -31 -71 -92q-45 -74 -45 -102q0 -55 77 -56q109 0 283 95q145 78 250 172l18 -23q-324 -272 -555 -272q-180 0 -180 145zM383 313q141 35 274 107q188 102 189 192 q0 23 -49 23q-70 0 -219 -131q-99 -85 -195 -191zM483 930q0 49 33 84q33 37 82 37q84 0 84 -80q0 -45 -37 -78q-35 -33 -82 -33q-80 0 -80 70zM795 946q0 47 36 78q35 29 87 29q29 0 49 -20.5t20 -47.5q0 -47 -35 -86q-35 -37 -84 -37q-73 0 -73 84z" />
<glyph unicode="&#xec;" horiz-adv-x="487" d="M115 109q0 82 139 274l203 258h188q-436 -551 -436 -600q0 -14 33 -14q45 0 182 106q123 94 170 148l14 -23q-268 -268 -401 -268q-92 0 -92 119zM426 1059h203l61 -223h-43z" />
<glyph unicode="&#xed;" horiz-adv-x="487" d="M113 109q0 82 139 274l203 258h188q-436 -551 -436 -600q0 -14 33 -14q45 0 182 106q123 94 170 148l14 -23q-268 -268 -401 -268q-92 0 -92 119zM506 840l141 227h201l-289 -227h-53z" />
<glyph unicode="&#xee;" horiz-adv-x="487" d="M113 109q0 82 139 274l203 258h188q-436 -551 -436 -600q0 -14 33 -14q45 0 182 106q123 94 170 148l14 -23q-268 -268 -401 -268q-92 0 -92 119zM334 846l428 262l29 -262h-39l-88 98l-250 -98h-80z" />
<glyph unicode="&#xef;" horiz-adv-x="487" d="M113 109q0 82 139 274l203 258h188q-436 -551 -436 -600q0 -14 33 -14q45 0 182 106q123 94 170 148l14 -23q-268 -268 -401 -268q-92 0 -92 119zM369 930q0 45 34 84q34 37 80 37q82 0 82 -80q0 -45 -34.5 -78t-79.5 -33q-82 0 -82 70zM678 946q0 47 41 78q39 29 86 29 q66 0 65 -74q0 -47 -34.5 -82t-81.5 -35q-76 0 -76 84z" />
<glyph unicode="&#xf1;" horiz-adv-x="978" d="M-49 6l489 637h185q-100 -102 -176 -237q281 254 423 253q92 0 93 -116q0 -80 -80 -185q-23 -29 -156 -174q-90 -98 -98 -145l8 -14q10 -4 25 -5q43 0 196 111q150 106 189 152l18 -25q-143 -127 -205 -172q-139 -100 -237 -100q-96 0 -97 116q0 74 93 191q45 57 167 190 q92 98 93 123q0 25 -27 25q-141 0 -489 -355q-78 -78 -220 -270h-194zM516 842l111 114q76 66 137 66q33 0 80 -35t74 -35q41 0 92 70h61l-57.5 -62.5l-37.5 -41.5l-11 -13q-74 -68 -136 -67q-37 0 -86 36.5t-71 36.5q-41 0 -101 -69h-55z" />
<glyph unicode="&#xf2;" horiz-adv-x="733" d="M119 131q0 182 223 363q215 172 401 172q33 0 57.5 -25t24.5 -57q0 -84 -98 -248q37 -37 88 -37q8 0 29 4v-29q-10 -2 -47 -2q-53 0 -99 35q-84 -121 -196 -211q-139 -109 -256 -108q-127 0 -127 143zM211 57q0 -43 43 -43q94 0 238 123q104 90 194 201q-2 8 -2 29 q0 66 29 110q10 16 55 51q29 23 29 50q0 45 -41 45q-92 0 -320 -236q-225 -234 -225 -330zM532 1059h201l60 -223h-39z" />
<glyph unicode="&#xf3;" horiz-adv-x="733" d="M123 131q0 182 223 363q215 172 404 172q31 0 55 -25t24 -57q0 -84 -98 -248q37 -37 88 -37q8 0 29 4v-29q-10 -2 -47 -2q-53 0 -99 35q-84 -121 -196 -211q-139 -109 -256 -108q-127 0 -127 143zM215 57q0 -43 43 -43q94 0 238 123q104 90 194 201q-2 8 -2 29 q0 66 29 110q10 16 55 51q29 25 29 50q0 45 -41 45q-92 0 -320 -236q-225 -234 -225 -330zM616 840l142 227h200l-290 -227h-52z" />
<glyph unicode="&#xf4;" horiz-adv-x="733" d="M125 131q0 182 223 363q215 172 404 172q31 0 55 -25t24 -57q0 -84 -98 -248q37 -37 88 -37q8 0 29 4v-29q-10 -2 -47 -2q-53 0 -98 35q-84 -121 -197 -211q-139 -109 -256 -108q-127 0 -127 143zM217 57q0 -43 43 -43q92 0 238 123q104 90 194 201q-2 8 -2 29 q0 66 29 110q10 16 55 51q29 25 29 50q0 45 -41 45q-92 0 -320 -236q-225 -234 -225 -330zM444 846l430 262l29 -262h-37l-92 98l-248 -98h-82z" />
<glyph unicode="&#xf5;" horiz-adv-x="733" d="M123 131q0 182 223 363q215 172 404 172q31 0 55 -25t24 -57q0 -84 -98 -248q37 -37 88 -37q8 0 29 4v-29q-10 -2 -47 -2q-53 0 -99 35q-84 -121 -196 -211q-139 -109 -256 -108q-127 0 -127 143zM215 57q0 -43 43 -43q94 0 238 123q104 90 194 201q-2 8 -2 29 q0 66 29 110q10 16 55 51q29 25 29 50q0 45 -41 45q-92 0 -320 -236q-225 -234 -225 -330zM438 842l111 114q76 66 135 66q35 0 82 -35t76 -35q33 0 90 70h61q-102 -109 -106 -117q-74 -68 -137 -67q-37 0 -86.5 36.5t-69.5 36.5q-35 0 -100 -69h-56z" />
<glyph unicode="&#xf6;" horiz-adv-x="733" d="M115 129q0 182 221 360q213 172 395 173q35 0 62 -21q29 -23 28 -53q0 -90 -96 -252q31 -37 84 -37q8 0 33 4v-29q-10 -2 -41 -2q-57 0 -99 39q-268 -322 -452 -321q-135 0 -135 139zM205 57q0 -43 53 -43q94 0 238 125q119 102 188 205l-2 14q0 72 25 111q25 41 77 78 q8 25 9 35q0 34 -43 43q-111 -23 -324 -242q-221 -225 -221 -326zM702 942q0 47 35 80t82 33q29 0 51 -17q27 -20 27 -45v-22q0 -40 -37 -74q-35 -33 -78 -33q-80 0 -80 78zM1012 944q0 45 32.5 80t77.5 35q80 0 80 -72q0 -47 -33 -82q-34 -37 -79 -37q-78 0 -78 76z" />
<glyph unicode="&#xf7;" horiz-adv-x="1030" d="M-27 449v106h1002v-106h-1002zM358 242q0 45 31 75.5t76 30.5t75.5 -30.5t30.5 -75.5t-30.5 -76t-75.5 -31t-76 31t-31 76zM358 762q0 45 31 75.5t76 30.5t75.5 -30.5t30.5 -75.5t-30.5 -76t-75.5 -31t-76 31t-31 76z" />
<glyph unicode="&#xf8;" horiz-adv-x="733" d="M-29 14l123 80q-2 31 -2 49q0 174 215 353q207 170 385 170q115 0 109 -117l112 67l15 -28l-146 -90l-82 -160q49 -39 84 -39q16 0 35 6v-24q-18 -8 -63 -9q-43 0 -78 41q-158 -172 -201 -207q-137 -115 -254 -114q-96 0 -119 74l-120 -74zM184 53q0 -37 60 -37 q88 0 231 125q119 106 184 205l7 76l-183 -113l-272 -176q-27 -41 -27 -80zM252 195l426 270q29 49 84 82q4 41 4 47q0 31 -29 31q-86 0 -266 -174q-158 -147 -219 -256z" />
<glyph unicode="&#xf9;" horiz-adv-x="937" d="M84 98q0 98 133 283l207 260h186q-434 -539 -434 -600q0 -16 23 -16h10q59 0 235 139q94 72 218 229q152 195 198 248h184l-243 -309q-195 -254 -195 -293q0 -16 29 -16q53 0 192 106q106 80 181 154l14 -25q-139 -125 -195 -168q-135 -102 -219 -102q-100 0 -100 102 q0 49 16 103q-63 -59 -155 -123q-117 -80 -174 -80q-111 -1 -111 108zM621 1059h200l62 -223h-43z" />
<glyph unicode="&#xfa;" horiz-adv-x="937" d="M90 98q0 95 135 283l205 260h186q-434 -539 -434 -600q0 -16 23 -16h10q59 0 236 139q100 78 217 229q172 219 198 248h185l-244 -309q-195 -254 -195 -293q0 -16 29 -16q53 0 193 106q117 90 180 154l14 -25q-139 -125 -194 -168q-135 -102 -220 -102q-100 0 -100 102 q0 49 16 103q-70 -68 -155 -123q-117 -80 -174 -80q-111 -1 -111 108zM705 840l143 227h201l-291 -227h-53z" />
<glyph unicode="&#xfb;" horiz-adv-x="937" d="M84 98q0 98 133 283l207 260h186q-434 -539 -434 -600q0 -16 23 -16h10q59 0 235 139q94 72 218 229q152 195 198 248h184l-243 -309q-195 -254 -195 -293q0 -16 29 -16q53 0 192 106q106 80 181 154l14 -25q-139 -125 -195 -168q-135 -102 -219 -102q-100 0 -100 102 q0 49 16 103q-63 -59 -155 -123q-117 -80 -174 -80q-111 -1 -111 108zM528 846l428 262l29 -262h-37l-92 98l-248 -98h-80z" />
<glyph unicode="&#xfc;" horiz-adv-x="937" d="M90 98q0 95 135 283l205 260h186q-434 -539 -434 -600q0 -16 23 -16h10q59 0 236 139q100 78 217 229q172 219 198 248h185l-244 -309q-195 -254 -195 -293q0 -16 29 -16q53 0 193 106q117 90 180 154l14 -25q-139 -125 -194 -168q-135 -102 -220 -102q-100 0 -100 102 q0 49 16 103q-70 -68 -155 -123q-117 -80 -174 -80q-111 -1 -111 108zM662 936q0 47 36 82q35 33 86 33q29 0 52 -23q20 -20 20 -53q0 -43 -35 -78t-78 -35q-81 0 -81 74zM971 948q0 45 41 76q39 29 84 29q29 0 47 -23q20 -25 20 -51q0 -45 -37 -82q-35 -35 -79 -35 q-76 0 -76 86z" />
<glyph unicode="&#xfd;" horiz-adv-x="937" d="M766 789l141 227h198l-288 -227h-51zM-338 -469q0 119 260 274q172 102 375 183q100 119 166 223q-72 -72 -164 -133q-115 -76 -190 -76q-43 0 -72 31q-27 29 -27 73q0 80 53 164q10 18 107 140l178 229h187l-222 -274q-126 -160 -202 -289l-2 -17q0 -18 24 -18 q113 0 412 299q86 86 258 307l174 -8l-459 -600q86 22 234 104q125 72 217 142l22 -23q-276 -197 -516 -278q-389 -518 -727 -519q-86 0 -86 66zM-289 -469q0 -37 47 -37q115 0 285 176q55 55 229 275q-561 -240 -561 -414z" />
<glyph unicode="&#xff;" horiz-adv-x="937" d="M-344 -469q0 119 260 274q172 102 375 183q100 119 166 223q-72 -72 -164 -133q-115 -76 -191 -76q-45 0 -71 31q-27 29 -27 73q0 80 53 164q10 18 107 140l178 229h186l-221 -274q-126 -160 -203 -289l-2 -17q0 -18 25 -18q113 0 412 299q86 86 258 307l174 -8 l-459 -600q83 22 233 104q125 72 218 142l22 -23q-276 -197 -516 -278q-389 -518 -727 -519q-86 0 -86 66zM-295 -469q0 -37 47 -37q115 0 285 176q55 55 229 275q-561 -240 -561 -414zM487 938q0 45 35 78q39 35 80 35q84 0 84 -80q0 -45 -37 -78q-35 -33 -82 -33 q-80 0 -80 78zM799 946q0 47 39 78q35 29 84 29q27 0 49 -23q20 -20 20 -49q0 -49 -34.5 -84t-82.5 -35q-75 0 -75 84z" />
<glyph unicode="&#x152;" horiz-adv-x="1794" d="M-78 297q0 240 240 512q215 246 536.5 422t550.5 176q106 0 151.5 -37t63.5 -139q252 178 545 178q43 0 80 -25q41 -29 41 -69q0 -133 -158 -273q-154 -135 -291 -135q-90 0 -90 68q0 106 144 188l14 -20q-51 -25 -84 -68q-39 -47 -39 -98q0 -41 70 -41q23 0 82 29 q119 55 202 131q113 100 113 198q0 84 -86 84q-160 0 -379 -174q-231 -180 -231 -332q0 -31 22 -63q20 2 92 2q29 0 48 -8l12 -17l2 -10q-14 -20 -57 -20q-53 0 -109 30q-205 -115 -354 -264q-197 -197 -197 -372q0 -135 234 -136q190 0 389 107q233 123 233 295 q0 49 -47 80q-45 29 -92 28q-299 0 -569 -338h-9q-9 0 -18 13q137 178 244 252q147 104 329 104q78 0 131 -35q61 -40 62 -110q0 -193 -240 -318q-201 -106 -409 -106q-178 0 -263 59q-100 72 -112 240q-78 -104 -248 -198.5t-299 -94.5q-250 0 -250 305zM16 164 q0 -147 172 -148q267 0 701 523q289 346 289 477q0 49 -37 76q-33 27 -82 26q-129 0 -313.5 -172t-184.5 -301q0 -63 70 -63q100 0 217 133q86 98 145 225l25 -6q-47 -119 -156 -238q-123 -135 -235 -135q-37 0 -76 33q-37 31 -37 72q0 178 191 329q180 143 362 144 q141 0 141 -142q0 -27 -6 -53q88 47 152 129q74 92 73 180q0 61 -53 99q-49 33 -110 32q-252 0 -598 -288q-205 -170 -402 -428q-248 -322 -248 -504zM1071 694q180 86 309 109q-61 70 -61 155q0 23 2 33l-131 -76z" />
<glyph unicode="&#x153;" horiz-adv-x="1181" d="M96 121q0 190 242 373q229 170 426 170q80 0 80 -72q0 -49 -27 -96q242 164 424 163q76 0 76 -59q0 -96 -211 -207q-143 -72 -303 -123q-119 -145 -119 -198q0 -55 70 -56q98 0 272 101q141 84 248 170l18 -25q-348 -274 -561 -274q-68 0 -108 39q-43 40 -43 104 q0 41 20 100q-139 -123 -182 -151q-125 -88 -213 -88q-47 0 -78 43q-31 39 -31 86zM195 49q0 -12 12 -20q14 -10 22 -11q109 0 348.5 233.5t239.5 342.5q0 29 -39 29q-100 0 -340 -238q-243 -240 -243 -336zM836 311q109 29 260 115q186 104 186 178q0 29 -39 29 q-68 0 -219 -129q-112 -99 -188 -193z" />
<glyph unicode="&#x178;" horiz-adv-x="1304" d="M-47 -397q0 129 305 266q213 98 428 147q10 16 227 287q133 164 211 299q-158 -158 -301 -260q-217 -160 -346 -160q-115 0 -115 144q0 139 177 333l329 332q176 184 176 291q0 117 -194 117q-190 0 -404 -115q-244 -133 -243 -305q0 -49 39 -80q41 -31 90 -31 q131 0 293 119q150 111 213 240q16 41 28 61h23q-4 -12 -15 -37q-68 -168 -212 -282q-154 -123 -326 -123q-166 0 -166 141q0 195 260 330q219 113 436 113q233 0 234 -203q0 -175 -172 -387q-68 -84 -324 -330q-172 -170 -172 -236q0 -59 57 -59q250 0 1127 950l242 236 h174q-473 -451 -1100 -1305q195 84 387 230l20 -31q-182 -145 -450 -256q-139 -207 -348 -361q-240 -176 -459 -176q-129 1 -129 101zM-8 -410q0 -61 94 -61q143 0 320 164q84 78 249 280q-203 -47 -389 -137q-274 -129 -274 -246zM1300 1610q0 51 33 84q35 35 84 35 q33 0 53 -25q23 -27 23 -57q0 -41 -35 -76t-78 -35q-80 0 -80 74zM1610 1620q0 41 35 76q33 33 77 33q80 0 80 -78q0 -45 -35 -80q-33 -33 -79 -33q-78 0 -78 82z" />
<glyph unicode="&#x2c6;" horiz-adv-x="0" d="M104 846l428 262l29 -262h-35l-92 98l-248 -98h-82z" />
<glyph unicode="&#x2dc;" horiz-adv-x="0" d="M100 842q156 180 246 180q35 0 82 -35t74 -35q35 0 92 70h61q-82 -94 -108 -117q-74 -68 -135 -67q-37 0 -86.5 36.5t-69.5 36.5q-45 0 -102 -69h-54z" />
<glyph unicode="&#x2000;" horiz-adv-x="886" />
<glyph unicode="&#x2001;" horiz-adv-x="1773" />
<glyph unicode="&#x2002;" horiz-adv-x="886" />
<glyph unicode="&#x2003;" horiz-adv-x="1773" />
<glyph unicode="&#x2004;" horiz-adv-x="589" />
<glyph unicode="&#x2005;" horiz-adv-x="442" />
<glyph unicode="&#x2006;" horiz-adv-x="294" />
<glyph unicode="&#x2007;" horiz-adv-x="294" />
<glyph unicode="&#x2008;" horiz-adv-x="219" />
<glyph unicode="&#x2009;" horiz-adv-x="354" />
<glyph unicode="&#x200a;" horiz-adv-x="96" />
<glyph unicode="&#x2010;" horiz-adv-x="608" d="M176 287l98 127h496l-90 -127h-504z" />
<glyph unicode="&#x2011;" horiz-adv-x="608" d="M176 287l98 127h496l-90 -127h-504z" />
<glyph unicode="&#x2012;" horiz-adv-x="608" d="M176 287l98 127h496l-90 -127h-504z" />
<glyph unicode="&#x2013;" d="M139 285l97 125h698q-33 -25 -107 -125h-688z" />
<glyph unicode="&#x2014;" horiz-adv-x="978" d="M195 535v90h987v-90h-987z" />
<glyph unicode="&#x2018;" horiz-adv-x="487" d="M510 1038q0 203 436 355v-29q-76 -25 -145 -74q-92 -66 -92 -121q0 -6 12 -32q10 -23 10 -45q0 -55 -41 -97q-43 -43 -94 -43q-86 0 -86 86z" />
<glyph unicode="&#x2019;" horiz-adv-x="487" d="M889 942v33q66 25 137 76q88 63 88 116q-23 49 -22 80q0 55 41 96q43 43 92 43q92 0 92 -94q0 -192 -428 -350z" />
<glyph unicode="&#x201a;" horiz-adv-x="444" d="M-59 -195q231 94 231 193q0 10 -12.5 34.5t-12.5 45.5q0 51 43 94t97 43q90 0 90 -82q0 -114 -166 -227q-123 -84 -270 -131v30z" />
<glyph unicode="&#x201c;" d="M682 1032q0 117 158 228q111 78 266 129v-33q-129 -68 -139 -74q-86 -57 -86 -119q0 -16 12 -40.5t12 -41.5q0 -55 -43 -98q-45 -45 -96 -45q-84 0 -84 94zM1049 1028q0 123 159 234q115 78 273 129v-29q-74 -27 -142 -74q-90 -63 -90 -114q0 -18 12.5 -45t12.5 -46 q0 -49 -41 -94q-41 -43 -90 -43q-94 0 -94 82z" />
<glyph unicode="&#x201d;" d="M582 973q231 90 231 190q0 10 -10 41t-10 41q0 57 43 96q45 41 98 41q82 0 82 -92q0 -119 -160 -219q-78 -51 -262 -127zM950 969q78 33 142 75q94 63 94 115q0 12 -12.5 39t-12.5 47q0 55 41 96t96 41q86 0 86 -77q0 -125 -151 -232q-106 -76 -266 -129l-13 8z" />
<glyph unicode="&#x201e;" d="M-96 -190q72 20 145 69q94 61 94 115q0 16 -14 38.5t-14 41.5q0 49 43 96q43 45 94 45q92 0 92 -88q0 -117 -162 -223q-123 -82 -268 -123zM285 -195l68.5 36t50 26l20.5 10q86 57 86 115q0 15 -12.5 42.5t-12.5 43.5q0 53 43 96t99 43q84 0 84 -74q0 -129 -152 -237 q-123 -92 -268 -127z" />
<glyph unicode="&#x2022;" horiz-adv-x="681" d="M74 723q0 106 82 188q78 78 190 78q111 0 186.5 -77.5t75.5 -188.5t-76 -191q-74 -76 -186 -75q-111 0 -192 78q-80 75 -80 188z" />
<glyph unicode="&#x2026;" horiz-adv-x="2048" d="M236 0v217h213v-217h-213zM918 0v217h212v-217h-212zM1599 0v217h213v-217h-213z" />
<glyph unicode="&#x202f;" horiz-adv-x="354" />
<glyph unicode="&#x2039;" horiz-adv-x="681" d="M180 473v189l322 251v-180l-215 -166l215 -166v-180z" />
<glyph unicode="&#x203a;" horiz-adv-x="681" d="M180 221v180l215 166l-215 166v180l322 -251v-189z" />
<glyph unicode="&#x205f;" horiz-adv-x="442" />
<glyph unicode="&#x2122;" horiz-adv-x="1671" d="M-39 1098l6 184h602l6 -184l-34 -2v16q4 86 -72 111q-31 12 -145 16v-594q0 -53 96 -53v-35h-305v35q98 0 98 53v594q-113 -4 -152 -18q-70 -31 -67 -125zM631 1247v35h217l252 -549l239 549h213v-35h-16q-76 0 -76 -47v-555q0 -53 94 -53v-35h-305v35q98 0 99 53v529 l-256 -617h-35l-275 586v-498q0 -53 99 -53v-35h-246v35q96 0 96 53v537q0 47 -29 59q-14 6 -71 6z" />
<glyph unicode="&#xe000;" horiz-adv-x="655" d="M0 655h655v-655h-655v655z" />
<glyph unicode="&#xfb01;" horiz-adv-x="1058" d="M680 104q0 84 139 277q29 41 205 258h186l-242 -307q-195 -254 -194 -287q0 -18 33 -18q49 0 182 102q115 84 168 145l20 -18q-297 -266 -395 -266q-102 -1 -102 114zM1206 881q0 47 32.5 79.5t80.5 32.5q34 0 61 -24q27 -25 27 -60q0 -45 -35 -75.5t-76 -30.5 q-90 0 -90 78zM-508 -541l604 824q-8 23 -8 47q0 2 6 24q20 55 74 101l100 75q111 88 269 283l245 313q74 88 207 179q158 104 244 104q51 0 51 -61q0 -98 -297 -385q-215 -209 -399 -349q-68 -47 -170 -127q-43 -46 -99 -129l-90 -135q55 -10 70 -10q104 0 262 84l12 -27 q-158 -88 -262 -88q-63 0 -104 17l-535 -740h-180zM498 586q205 160 422 360q317 297 317 393q0 43 -31 43q-100 0 -377 -342q-171 -214 -331 -454z" />
<glyph unicode="&#xfb02;" horiz-adv-x="1099" d="M702 106q0 139 252 459q238 307 520 549q305 266 449 266q49 0 49 -53q0 -172 -696 -702l-123 -90l-66 -50q-12 -12 -55 -67l-131 -185q-106 -145 -107 -186q0 -23 33 -22q63 0 367 262l16 -27q-147 -133 -199 -170q-139 -102 -229 -102q-80 -1 -80 118zM1163 586 q186 129 434 344q328 287 328 387q0 33 -37 33q-104 0 -381 -326q-59 -69 -344 -438zM-508 -541l604 824q-8 23 -8 47q0 2 6 24q20 55 74 101l100 75q111 88 269 283l245 313q74 88 207 179q158 104 244 104q51 0 51 -61q0 -98 -297 -385q-215 -209 -399 -349 q-68 -47 -170 -127q-43 -46 -99 -129l-90 -135q55 -10 70 -10q104 0 262 84l12 -27q-158 -88 -262 -88q-63 0 -104 17l-535 -740h-180zM498 586q205 160 422 360q317 297 317 393q0 43 -31 43q-100 0 -377 -342q-171 -214 -331 -454z" />
<glyph unicode="&#xfb03;" horiz-adv-x="1630" d="M1252 104q0 84 139 277q29 41 205 258h186l-242 -307q-195 -254 -194 -287q0 -18 33 -18q49 0 182 102q115 84 168 145l20 -18q-297 -266 -395 -266q-102 -1 -102 114zM1778 881q0 47 32.5 79.5t80.5 32.5q34 0 61 -24q27 -25 27 -60q0 -45 -35 -75.5t-76 -30.5 q-90 0 -90 78zM63 -541l604 824q-8 23 -8 47q0 2 6 24q20 55 74 101l100 75q111 88 269 283l245 313q74 88 207 179q158 104 244 104q51 0 51 -61q0 -98 -297 -385q-215 -209 -399 -349q-68 -47 -170 -127q-43 -46 -99 -129l-90 -135q55 -10 70 -10q104 0 262 84l12 -27 q-158 -88 -262 -88q-63 0 -104 17l-535 -740h-180zM1069 586q205 160 422 360q317 297 317 393q0 43 -31 43q-100 0 -377 -342q-171 -214 -331 -454zM-508 -541l604 824q-8 23 -8 47q0 2 6 24q20 55 74 101l100 75q111 88 269 283l245 313q74 88 207 179q158 104 244 104 q51 0 51 -61q0 -98 -297 -385q-215 -209 -399 -349q-68 -47 -170 -127q-43 -46 -99 -129l-90 -135q55 -10 70 -10q104 0 262 84l12 -27q-158 -88 -262 -88q-63 0 -104 17l-535 -740h-180zM498 586q205 160 422 360q317 297 317 393q0 43 -31 43q-100 0 -377 -342 q-171 -214 -331 -454z" />
<glyph unicode="&#xfb04;" horiz-adv-x="1671" d="M1274 106q0 139 252 459q238 307 520 549q305 266 449 266q49 0 49 -53q0 -172 -696 -702l-123 -90l-66 -50q-12 -12 -55 -67l-131 -185q-106 -145 -107 -186q0 -23 33 -22q63 0 367 262l16 -27q-147 -133 -199 -170q-139 -102 -229 -102q-80 -1 -80 118zM1735 586 q186 129 434 344q328 287 328 387q0 33 -37 33q-104 0 -381 -326q-59 -69 -344 -438zM63 -541l604 824q-8 23 -8 47q0 2 6 24q20 55 74 101l100 75q111 88 269 283l245 313q74 88 207 179q158 104 244 104q51 0 51 -61q0 -98 -297 -385q-215 -209 -399 -349 q-68 -47 -170 -127q-43 -46 -99 -129l-90 -135q55 -10 70 -10q104 0 262 84l12 -27q-158 -88 -262 -88q-63 0 -104 17l-535 -740h-180zM1069 586q205 160 422 360q317 297 317 393q0 43 -31 43q-100 0 -377 -342q-171 -214 -331 -454zM-508 -541l604 824q-8 23 -8 47 q0 2 6 24q20 55 74 101l100 75q111 88 269 283l245 313q74 88 207 179q158 104 244 104q51 0 51 -61q0 -98 -297 -385q-215 -209 -399 -349q-68 -47 -170 -127q-43 -46 -99 -129l-90 -135q55 -10 70 -10q104 0 262 84l12 -27q-158 -88 -262 -88q-63 0 -104 17l-535 -740 h-180zM498 586q205 160 422 360q317 297 317 393q0 43 -31 43q-100 0 -377 -342q-171 -214 -331 -454z" />
<glyph horiz-adv-x="0" d="M950 1704l238 -6l-305 -217l-52 4z" />
</font>
</defs>
</svg>
