<?xml version="1.0" standalone="no"?>
<!DOCTYPE svg PUBLIC "-//W3C//DTD SVG 1.1//EN" "http://www.w3.org/Graphics/SVG/1.1/DTD/svg11.dtd" >
<svg xmlns="http://www.w3.org/2000/svg">
<metadata></metadata>
<defs>
<font id="nauvooregular" horiz-adv-x="882" >
<font-face units-per-em="2048" ascent="1638" descent="-410" />
<missing-glyph horiz-adv-x="612" />
<glyph horiz-adv-x="0" />
<glyph unicode="&#xd;" horiz-adv-x="612" />
<glyph unicode=" "  horiz-adv-x="612" />
<glyph unicode="&#x09;" horiz-adv-x="612" />
<glyph unicode="&#xa0;" horiz-adv-x="612" />
<glyph unicode="!" horiz-adv-x="251" d="M25 92q0 41 26.5 67.5t67.5 26.5q43 0 69.5 -26.5t26.5 -67.5t-26.5 -67.5t-69.5 -26.5q-41 0 -67.5 26.5t-26.5 67.5zM59 1311h131v-946h-129z" />
<glyph unicode="&#x22;" horiz-adv-x="518" d="M47 743l4 576h131l2 -576h-137zM336 1319h131l-2 -574l-127 -2z" />
<glyph unicode="#" horiz-adv-x="1386" d="M31 391l2 127h313l80 221h-324l2 127h369l131 363l129 2l-133 -365l262 2l131 361l129 2l-131 -363h342v-131h-389l-80 -217h398v-131h-445l-141 -389h-131l143 389l-260 2l-141 -391h-131l143 391h-268zM475 518l260 2l80 217l-260 2z" />
<glyph unicode="$" horiz-adv-x="1015" d="M92 848q0 98 141 223q121 109 232 148v92l127 2v-72h18q193 4 355 -154l-91 -90q-123 117 -258 113h-24l2 -448q197 -78 223 -91q170 -80 170 -129q0 -102 -147 -231q-131 -113 -246 -148v-63h-131v45q-199 6 -350 154l90 90q117 -109 260 -113v412q-109 47 -213 110 q-158 94 -158 150zM244 893q0 -53 221 -172v352q-61 -29 -129 -78q-92 -66 -92 -102zM594 205q63 29 139 80q101 69 101 110q0 25 -240 135v-325z" />
<glyph unicode="%" horiz-adv-x="1249" d="M35 918q0 129 67 217q76 96 201 96t201 -96q67 -88 67 -217t-67 -220q-76 -96 -201 -96t-201 96q-68 90 -67 220zM139 915q0 -82 41 -137q45 -63 123 -63t123 63q41 55 41 137q0 80 -43 140.5t-121 60.5t-121 -60.5t-43 -140.5zM207 0l663 1229l150 2l-662 -1231h-151z M690 317q0 129 68 220q76 96 200 96q125 0 201 -96q68 -91 68 -220t-68 -217q-76 -96 -201 -96t-200 96q-68 88 -68 217zM795 317q0 -82 41 -137q45 -63 122 -63q78 0 123 63q41 55 41 137q0 80 -43 139.5t-121 59.5t-120.5 -59.5t-42.5 -139.5z" />
<glyph unicode="&#x26;" horiz-adv-x="880" d="M43 897q0 129 129 237.5t260 108.5q178 0 291 -100.5t113 -276.5l-109 2q0 119 -74.5 187.5t-193.5 68.5q-109 0 -191 -57q-96 -61 -96 -164q0 -94 494 -678q92 63 102 148l82 -47q-8 -102 -117 -183q41 -47 121 -143h-152q-29 35 -69 84q-145 -66 -285 -66 q-119 0 -192.5 92.5t-73.5 213.5q0 156 111 299q-150 203 -150 274zM197 328q0 -78 48 -139.5t124 -61.5q88 0 192 41q-190 223 -297 360q-68 -100 -67 -200z" />
<glyph unicode="'" horiz-adv-x="223" d="M47 743l4 576h131l2 -576h-137z" />
<glyph unicode="(" horiz-adv-x="692" d="M35 504q0 266 149 522q172 295 420 297l4 -131q-193 -4 -327 -260q-117 -219 -117 -430q0 -213 117 -432q134 -256 327 -260l-4 -125q-248 2 -420 297q-150 256 -149 522z" />
<glyph unicode=")" horiz-adv-x="692" d="M51 -190q193 4 328 260q117 219 117 432q0 211 -117 430q-135 256 -328 260l4 131q248 -2 420 -297q150 -256 150 -522t-150 -522q-172 -295 -420 -297z" />
<glyph unicode="*" horiz-adv-x="684" d="M23 743l241 287l-239 289h151l96 -115l2 219h132v-223l100 119h151l-237 -289l242 -287h-158l-96 117v-217h-138v211l-90 -111h-157z" />
<glyph unicode="+" horiz-adv-x="890" d="M55 571v131h348v302l127 2v-306h326l-2 -127h-322v-368h-131v366h-346z" />
<glyph unicode="," horiz-adv-x="352" d="M39 -129q51 0 84 41t33 94q0 20 -50.5 55t-50.5 62q0 43 41 71.5t84 28.5q123 0 123 -133q0 -106 -79 -189t-185 -83v53z" />
<glyph unicode="-" horiz-adv-x="765" d="M55 571v131l658 -2l-2 -127z" />
<glyph unicode="." horiz-adv-x="432" d="M16 113q0 47 32 77.5t81 30.5q47 0 79 -30.5t32 -77.5q0 -49 -32 -80t-81 -31q-47 0 -79 30.5t-32 80.5z" />
<glyph unicode="/" horiz-adv-x="880" d="M43 0l664 1229l149 2l-661 -1231h-152z" />
<glyph unicode="0" horiz-adv-x="1216" d="M35 606q0 258 153 441q162 195 416 194q254 0 416 -194q154 -183 154 -441t-154 -440q-162 -195 -416 -195t-416 195q-154 182 -153 440zM164 604q0 -203 119 -350q129 -158 325 -158q197 0 326 158q119 147 119 350q0 201 -119 348q-129 158 -326 158t-325 -158 q-119 -147 -119 -348z" />
<glyph unicode="1" horiz-adv-x="452" d="M20 1022l281 203v-2v6l127 2l2 -1231h-131l2 1067l-201 -149z" />
<glyph unicode="2" horiz-adv-x="987" d="M29 0l4 137h20l664 590q72 63 71 131q0 100 -80.5 176t-181.5 76q-164 0 -263 -109.5t-99 -273.5l-129 2q0 215 137 363.5t350 148.5q139 0 280.5 -125t141.5 -262q0 -96 -78 -166l-610 -551h678v-137h-905z" />
<glyph unicode="3" horiz-adv-x="753" d="M41 123l98 102q84 -104 183 -104q139 0 196 37q74 49 74 178q0 113 -82 170q-74 53 -188 53q-41 0 -82 -8l4 143q49 -16 100 -16q106 0 179 64.5t73 166.5q0 131 -74 178q-57 37 -196 37q-102 0 -187 -102l-94 102q119 139 285 140q403 -1 403 -357q0 -182 -151 -284 q147 -104 147 -285q0 -354 -403 -354q-166 0 -285 139z" />
<glyph unicode="4" horiz-adv-x="987" d="M57 338v125l654 766l127 2l2 -764h121v-131h-121v-336h-131v336zM242 465l467 2l2 569z" />
<glyph unicode="5" horiz-adv-x="753" d="M33 610l104 615l514 -2l-2 -127l-405 -2l-60 -340q137 -8 205 -17q139 -18 193 -53q147 -94 147 -305q0 -166 -111.5 -282.5t-277.5 -116.5q-176 0 -299 143l98 102q84 -104 183 -104q270 0 270 256q0 250 -350 250q-82 0 -209 -17z" />
<glyph unicode="6" d="M47 324l6 481q2 186 109 321q115 147 295 148q352 -1 350 -404l-123 4q0 115 -45 191q-55 90 -164 90q-145 0 -235 -133q-80 -117 -78 -268v-58q115 123 284 123q178 0 295 -141q111 -133 111 -316q0 -182 -111.5 -289.5t-294.5 -107.5q-154 0 -270 123q-37 41 -80 113 q-49 82 -49 123zM174 410q0 -131 82 -220.5t213 -89.5q115 0 185.5 74t70.5 191q0 127 -76 223q-82 102 -205 102q-113 0 -191.5 -84t-78.5 -196z" />
<glyph unicode="7" horiz-adv-x="991" d="M37 1217h905v-138l-715 -1079h-161l718 1079h-743z" />
<glyph unicode="8" horiz-adv-x="790" d="M35 922q0 109 57 194l-6 8q121 141 320 142q199 0 319 -144l-6 -6q57 -86 57 -192q0 -197 -153 -301q150 -106 149 -299q0 -106 -55 -191l12 -12q-121 -141 -323 -141q-201 0 -324 143l10 10q-53 84 -53 189q0 193 149 299q-154 104 -153 301zM174 909 q0 -102 64.5 -165.5t164.5 -63.5q102 0 168 64.5t66 164.5q0 215 -217 215q-125 0 -180 -45q-66 -51 -66 -170zM178 336q0 -215 215 -215q123 0 181.5 48t58.5 167q0 98 -63.5 158.5t-161.5 60.5t-164 -60.5t-66 -158.5z" />
<glyph unicode="9" horiz-adv-x="837" d="M4 883q0 182 111.5 289.5t294.5 107.5q152 0 270 -123q37 -41 80 -113q49 -81 49 -122l-6 -482q-2 -186 -109 -321q-115 -147 -295 -148q-352 0 -350 404l123 -4q0 -115 45 -191q55 -90 164 -90q145 0 235 133q80 117 78 269v57q-115 -123 -284 -123q-178 0 -295 141 q-111 133 -111 316zM131 881q0 -127 76 -224q82 -102 205 -102q113 0 191.5 84t78.5 197q0 131 -82 220t-213 89q-115 0 -185.5 -74t-70.5 -190z" />
<glyph unicode=":" horiz-adv-x="256" d="M16 113q0 47 32 77.5t81 30.5q47 0 79 -30.5t32 -77.5q0 -49 -32 -80t-81 -31q-47 0 -79 30.5t-32 80.5zM16 829q0 47 32 78t81 31q47 0 79 -31t32 -78q0 -49 -32 -79.5t-81 -30.5q-47 0 -79 30.5t-32 79.5z" />
<glyph unicode=";" horiz-adv-x="352" d="M39 -129q51 0 84 41t33 94q0 20 -50.5 55t-50.5 62q0 43 41 71.5t84 28.5q123 0 123 -133q0 -106 -79 -189t-185 -83v53zM78 829q0 47 31.5 78t80.5 31q47 0 79 -31t32 -78q0 -49 -31.5 -79.5t-81.5 -30.5q-47 0 -78.5 30.5t-31.5 79.5z" />
<glyph unicode="&#x3c;" horiz-adv-x="825" d="M53 545l4 127l707 311l6 -131l-565 -246l565 -252l-6 -131z" />
<glyph unicode="=" horiz-adv-x="765" d="M27 270v138l698 -2v-132zM27 664l2 127l696 2v-131z" />
<glyph unicode="&#x3e;" horiz-adv-x="825" d="M53 354l565 252l-565 246l6 131l707 -311l4 -127l-711 -322z" />
<glyph unicode="?" d="M29 866q0 184 108 326q117 154 295 154q154 0 276.5 -113t122.5 -266q0 -49 -16 -101q-37 -115 -108 -151q-90 -25 -181 -51q-51 -16 -67 -25q-37 -18 -53 -47v-254l-109 -8v342q29 74 137 94q88 18 178 35q90 37 90 153q0 106 -80.5 189.5t-185.5 83.5q-129 0 -213 -119 q-78 -106 -78 -240zM270 92q0 41 27 67.5t68 26.5q43 0 69.5 -26.5t26.5 -67.5t-26.5 -67.5t-69.5 -26.5q-41 0 -68 26.5t-27 67.5z" />
<glyph unicode="@" horiz-adv-x="1239" d="M35 647q0 260 151 459q166 217 418 217q203 0 354 -160q131 -139 189 -352q27 -101 27 -164q0 -111 -148.5 -284t-257.5 -179l2 201q-80 -88 -192 -88q-133 0 -211 106q-72 96 -72 236q0 137 72 233q78 106 211 107q113 0 194 -88v78l90 2l2 -658q221 207 221 326 q0 219 -129 397q-139 195 -352 195q-211 0 -352 -195q-127 -178 -127 -397t127 -395q141 -197 352 -197v-76q-252 0 -418 217q-152 199 -151 459zM383 641q0 -98 49 -168q53 -80 148 -80q66 0 125 56.5t65 121.5q4 29 4 72q0 39 -2 66q-8 66 -67 122t-125 56q-94 0 -148 -80 q-49 -70 -49 -166z" />
<glyph unicode="A" horiz-adv-x="1040" d="M10 0l432 1311l127 -4l435 -1311l-132 -6l-161 497l-410 -2l-160 -491zM344 616l324 -2l-162 496z" />
<glyph unicode="B" horiz-adv-x="1073" d="M74 0v137l2 1174q109 4 205 4l315 -2q162 0 285 -103q127 -109 127 -268q0 -182 -164 -283q164 -98 164 -280q0 -160 -126 -269.5t-288 -109.5q-57 0 -174 -2h-172q-96 0 -174 2zM203 1176l2 -455q49 0 139 -2h139q178 0 254 24q137 48 137 191q0 111 -82.5 176.5 t-195.5 65.5h-393zM205 145h391q115 0 195.5 63.5t80.5 174.5q0 147 -129 192q-71 25 -249 25h-146q-100 -2 -143 -2v-453z" />
<glyph unicode="C" horiz-adv-x="1015" d="M186 1106q166 217 418 217q205 0 361 -154l-91 -90q-125 119 -264 119q-188 0 -323 -188q-123 -170 -123 -365q0 -205 119 -369q129 -180 325 -180q150 0 269 117l88 -88q-156 -154 -361 -154q-252 0 -418 217q-151 198 -151 456q0 263 151 462z" />
<glyph unicode="D" horiz-adv-x="1030" d="M33 0l2 1311q131 2 377 2q252 0 419 -211q158 -197 158 -455q0 -260 -153 -446q-164 -201 -418 -201h-385zM162 125h260q197 0 326 164q120 153 120 356q0 201 -123 363q-133 174 -329 174h-254v-1057z" />
<glyph unicode="E" horiz-adv-x="991" d="M33 0v1319h905v-137h-774v-424h733v-137h-733l-2 -484h776v-137h-905z" />
<glyph unicode="F" horiz-adv-x="991" d="M33 0v1319h905v-137h-774v-424h733v-137h-733v-621h-131z" />
<glyph unicode="G" horiz-adv-x="1015" d="M186 1106q166 217 418 217q205 0 361 -154l-91 -90q-125 119 -264 119q-188 0 -323 -188q-123 -170 -123 -365q0 -205 119 -369q129 -180 325 -180q121 0 226 78l2 483l127 2l2 -534q-156 -154 -361 -154q-252 0 -418 217q-151 198 -151 456q0 263 151 462z" />
<glyph unicode="H" horiz-adv-x="1013" d="M33 0l2 1313h131l-2 -541h649v445q0 98 129 282q88 127 188.5 180.5t251.5 53.5q100 0 152 -13q70 -18 131 -73q88 -80 88 -174q0 -152 -119 -152q-45 0 -84 27q-45 29 -45 71q0 25 30 51.5t30 47.5q0 53 -84 81q-63 23 -131 23q-137 0 -265 -147q-141 -166 -141 -265 l-2 -1210h-131l-2 639l-645 2v-641h-131z" />
<glyph unicode="I" horiz-adv-x="286" d="M74 0l2 1311l127 2l2 -1313h-131z" />
<glyph unicode="J" horiz-adv-x="1015" d="M47 125l88 88q119 -117 268 -117q197 0 326 180q119 164 119 369v678h131l-2 -676q0 -258 -152 -459q-166 -217 -417 -217q-205 0 -361 154z" />
<glyph unicode="K" horiz-adv-x="933" d="M33 0l2 1311l131 -2l-2 -604l565 606l168 -4l-602 -658l563 -649l-139 -4l-555 596v-592h-131z" />
<glyph unicode="L" horiz-adv-x="991" d="M33 0v1319h131l-2 -1182h776v-137h-905z" />
<glyph unicode="M" horiz-adv-x="1255" d="M33 0l2 1313l131 6l455 -1124l299 729q49 131 159 389h131l-2 -1313h-131l2 995l-403 -995h-103q-8 18 -129 309l-278 684l-2 -993h-131z" />
<glyph unicode="N" horiz-adv-x="1036" d="M35 1311l127 2l669 -1071v989q0 63 50 143q45 63 90 127q92 129 184 179.5t246 50.5q100 0 151 -15q70 -16 131 -71q89 -81 89 -175q0 -153 -117 -153h-2q-45 0 -84 26q-45 31 -45 74q0 23 29.5 50.5t29.5 45.5q0 53 -84 84q-63 23 -131 23q-152 0 -264 -127 q-141 -162 -141 -266v-1227h-152v6l-649 1055l4 -1061h-129z" />
<glyph unicode="O" horiz-adv-x="1216" d="M186 1106q166 217 418 217t418 -217q152 -199 152 -459t-152 -459q-166 -217 -418 -217t-418 217q-151 198 -151 456q0 263 151 462zM164 645q0 -205 119 -369q129 -180 325 -180q197 0 326 180q119 164 119 369q0 203 -119 367q-129 180 -326 180t-325 -180 q-119 -164 -119 -367z" />
<glyph unicode="P" horiz-adv-x="1073" d="M74 0l2 1311q109 4 231 4l289 -2q162 0 287 -115.5t125 -275.5t-125 -275t-287 -115h-391v-532h-131zM203 1176l2 -519h391q109 0 195 76t86 182t-86 183.5t-195 77.5h-393z" />
<glyph unicode="Q" horiz-adv-x="1216" d="M186 1106q166 217 418 217q260 0 420 -213q145 -193 145 -463q0 -354 -239 -555l110 -260l-125 -39l-94 230q-104 -51 -217 -52q-252 0 -418 217q-151 198 -151 456q0 263 151 462zM164 645q0 -195 121 -364q131 -188 317 -189q90 0 180 49l-108 269h129l84 -205 q162 166 162 430q0 215 -111 377q-125 180 -330 180q-197 0 -325 -180q-119 -164 -119 -367z" />
<glyph unicode="R" horiz-adv-x="1073" d="M74 0l2 1311q109 4 231 4l289 -2q162 0 287 -116t125 -275q0 -133 -90.5 -238.5t-223.5 -138.5l316 -545l-152 -6l-313 538h-340v-532h-131zM203 1176l2 -519h391q109 0 195 76t86 182t-86 183.5t-195 77.5h-393z" />
<glyph unicode="S" horiz-adv-x="1015" d="M92 868q0 174 178 320q168 135 348 135q188 0 347 -154l-91 -90q-117 111 -258 111q-115 0 -245 -88q-141 -94 -142 -203q0 -68 164 -147q63 -31 324 -134q197 -76 237 -118q35 -33 35 -78q0 -174 -180 -320q-170 -139 -348 -139q-190 0 -348 154l90 90 q117 -111 260 -111q137 0 264 103q41 35 78 84q45 61 45 102q0 25 -26.5 44.5t-137.5 66.5q-158 68 -315 135q-223 104 -269 182q-10 20 -10 55z" />
<glyph unicode="T" horiz-adv-x="968" d="M35 1184l2 127l901 2v-131h-408l2 -1182h-131l2 1184h-368z" />
<glyph unicode="U" horiz-adv-x="1183" d="M35 647v676h129v-678q0 -205 108 -366q121 -182 316 -183q195 0 315 185q106 162 107 366v676h129v-678q0 -260 -146 -457q-160 -217 -409 -217q-250 0 -408 219q-141 197 -141 457z" />
<glyph unicode="V" horiz-adv-x="1030" d="M45 1307l131 6l367 -1116q104 342 325 1022q35 98 119 239q94 158 162 203q109 74 289 74q100 0 151 -13q70 -18 131 -73q88 -78 88 -174q0 -152 -118 -152q-45 0 -84 27q-45 29 -45 71q0 25 29.5 51.5t29.5 45.5q0 55 -84 84q-60 22 -125 22h-6q-141 0 -260 -139 q-94 -113 -146 -273l-393 -1212l-127 -4z" />
<glyph unicode="W" horiz-adv-x="1726" d="M66 1307l131 6l325 -1116l301 1116h131l306 -1116q72 219 98 333q104 438 121 492q78 262 204 463q49 78 62 94q39 53 80 82q104 74 289 74q100 0 151 -13q70 -18 131 -73q88 -80 88 -174q0 -152 -119 -152q-45 0 -84 27q-45 29 -45 71q0 25 30 51.5t30 45.5q0 55 -84 84 q-60 22 -125 22h-6q-139 0 -260 -141q-100 -117 -146 -271l-352 -1212l-127 -4l-309 1118l-301 -1114l-127 -4z" />
<glyph unicode="X" horiz-adv-x="1216" d="M31 1315l170 -2l409 -541l410 539l170 2l-504 -658l488 -655l-152 -6l-412 543l-405 -537h-172l504 655z" />
<glyph unicode="Y" horiz-adv-x="1216" d="M31 1315l170 -2l409 -541l340 447q2 2 160 241q115 170 170 209q94 66 240 66q100 0 151 -13q70 -18 131 -73q88 -80 88 -174q0 -154 -123 -154q-43 0 -84 29.5t-41 70.5q0 25 30 51.5t30 45.5q0 55 -84 84q-60 22 -125 22h-6q-76 0 -129 -45q-16 -14 -90 -109 q-61 -86 -187 -258l-407 -555l2 -657h-131l2 659z" />
<glyph unicode="Z" horiz-adv-x="991" d="M37 0l4 137h2l741 1045h-743l-4 137h905v-137l-741 -1045h741v-137h-905z" />
<glyph unicode="[" horiz-adv-x="516" d="M53 -307l4 1618h406l2 -125l-283 -2l2 -1360l283 -2l4 -131z" />
<glyph unicode="\" horiz-adv-x="880" d="M41 1231l149 -2l664 -1229h-152z" />
<glyph unicode="]" horiz-adv-x="516" d="M61 -178l283 2l2 1360l-283 2l-2 127l416 -2v-1614l-414 -2z" />
<glyph unicode="^" horiz-adv-x="860" d="M57 989l312 481l127 5l321 -486l-131 -6l-252 360l-246 -360z" />
<glyph unicode="_" horiz-adv-x="698" d="M0 0l698 -2v-131l-698 -4v137z" />
<glyph unicode="`" horiz-adv-x="636" d="M-139 1749h172l397 -330h-178z" />
<glyph unicode="a" d="M137 782q117 154 295 154q156 0 273 -125v111l126 2l3 -924h-132v102q-115 -125 -270 -125q-178 0 -295 154q-108 140 -108 323q0 187 108 328zM229 227q81 -112 203 -112h2q92 0 174 77.5t94 169.5q6 41 7 99q0 55 -7 94q-10 92 -92 171t-176 79q-123 0 -205 -115 q-75 -101 -75 -228q0 -130 75 -235z" />
<glyph unicode="b" d="M39 0l2 1395l127 -2v-582q117 125 272 125q178 0 295 -154q109 -141 109 -325t-109 -326q-117 -154 -295 -154q-156 0 -270 125v-102h-131zM168 414q0 -113 76 -203q82 -96 194 -96q123 0 205 112q76 105 76 232q0 129 -76 231q-82 115 -205 115q-109 0 -189.5 -92 t-80.5 -203v-96z" />
<glyph unicode="c" horiz-adv-x="753" d="M137 782q117 154 295 154q166 0 285 -139l-80 -80q-86 100 -201 100q-129 0 -213 -119q-78 -106 -78 -239q0 -129 82 -240q88 -123 213 -123q106 0 193 103l82 -82q-117 -139 -283 -140q-178 0 -295 154q-108 140 -108 323q0 187 108 328z" />
<glyph unicode="d" d="M49 457q0 184 109 325q117 154 295 154q156 0 272 -125v582l127 2l2 -1395h-131v102q-115 -125 -270 -125q-178 0 -295 154q-109 141 -109 326zM174 459q0 -127 76 -232q81 -112 203 -112h2q92 0 174 77.5t94 169.5q6 41 6 99q0 55 -6 94q-10 92 -92 171t-176 79 q-123 0 -205 -115q-76 -102 -76 -231z" />
<glyph unicode="e" d="M29 457q0 184 108 325q117 154 295 154q166 0 277 -125q104 -117 118 -287q4 -49 4 -129l-681 2q18 -115 96 -202q84 -96 194 -97q102 0 187 95l84 -82q-123 -139 -273 -140q-172 0 -295 160q-115 147 -114 326zM150 524h571q-18 121 -90 201q-80 90 -195 90 q-117 0 -196 -90q-70 -80 -90 -201z" />
<glyph unicode="f" horiz-adv-x="628" d="M33 817l2 123h160v61q-2 150 124.5 277t276.5 129l-2 -131q-106 0 -189 -90q-81 -88 -81 -192v-5l2 -49h252l-3 -123h-249v-817h-131v817h-162z" />
<glyph unicode="g" d="M141 786q117 154 295 154q156 0 271 -125v103h131v-371q0 -385 -9 -549q-8 -190 -108 -326q-112 -153 -293 -153h-2l4 123q145 0 225 137q66 112 66 261v9v57q-114 -124 -282 -124h-3q-178 0 -295 153q-108 140 -108 323q0 187 108 328zM158 459q0 -129 75 -232 q81 -114 203 -114h2q109 0 193 94q78 90 78 201v96q0 113 -76 203q-82 96 -195 96q-123 0 -205 -113q-76 -104 -75 -231z" />
<glyph unicode="h" horiz-adv-x="874" d="M39 0l2 1395l127 -2v-582q119 127 268 127q170 0 293 -143q115 -135 115 -308q0 -104 -102.5 -276t-102.5 -277q0 -117 83 -194.5t202 -77.5q192 0 192 114q0 19 -28.5 46.5t-28.5 50.5q0 43 43 74q38 24 81 24h3h2q119 0 119 -151q0 -274 -408 -275q-262 0 -360 242 q-35 84 -35 162q0 123 57 231q2 4 103 160q57 86 57 158q0 121 -80 213t-199 92q-168 0 -256 -197q-16 -37 -16 -51v-555h-131z" />
<glyph unicode="i" horiz-adv-x="251" d="M25 1219q0 41 26.5 67.5t67.5 26.5q43 0 69.5 -26.5t26.5 -67.5t-26.5 -68t-69.5 -27q-41 0 -67.5 27t-26.5 68zM39 0l2 946h129v-946h-131z" />
<glyph unicode="j" horiz-adv-x="499" d="M37 -481l4 123q127 0 213 118q78 106 78 240l-2 918h119v-521q0 -248 -9 -399q-10 -193 -108 -326q-112 -153 -293 -153h-2zM291 1219q0 41 26.5 67.5t67.5 26.5q43 0 69.5 -26.5t26.5 -67.5t-26.5 -68t-69.5 -27q-41 0 -67.5 27t-26.5 68z" />
<glyph unicode="k" horiz-adv-x="714" d="M39 0l2 1395l127 -2l2 -813l360 356l168 -2l-395 -391l395 -543l-168 2l-360 496v-498h-131z" />
<glyph unicode="l" horiz-adv-x="223" d="M39 0l2 1395l127 -2l2 -1393h-131z" />
<glyph unicode="m" horiz-adv-x="1433" d="M35 -8l2 944l127 -2v-131q113 125 231 125q207 0 318 -197q127 207 321 207q168 0 281 -145q102 -133 102 -306q0 -104 -102.5 -276t-102.5 -277q0 -117 83 -194.5t202 -77.5q193 0 193 115q0 18 -29 45.5t-29 50.5q0 43 43 74q38 24 81 24h3h2q119 0 119 -151 q0 -274 -407 -275q-262 0 -361 242q-35 84 -35 162q0 125 58 231q2 6 102 160q57 86 57 158q0 117 -67 207q-74 100 -189 100q-152 0 -237 -199q-16 -37 -17 -51v-555h-131v516q0 109 -76.5 196t-183.5 87q-131 0 -213 -199q-16 -41 -16 -53l2 -555h-131z" />
<glyph unicode="n" horiz-adv-x="874" d="M39 0l2 944l127 -2v-131q119 127 268 127q170 0 293 -143q115 -135 115 -308q0 -104 -102.5 -276t-102.5 -277q0 -117 83 -194.5t202 -77.5q192 0 192 114q0 19 -28.5 46.5t-28.5 50.5q0 43 43 74q38 24 81 24h3h2q119 0 119 -151q0 -274 -408 -275q-262 0 -360 242 q-35 84 -35 162q0 123 57 231q2 4 103 160q57 86 57 158q0 121 -80 213t-199 92q-168 0 -256 -197q-16 -37 -16 -51v-555h-131z" />
<glyph unicode="o" d="M137 782q117 154 295 154t295 -154q109 -141 109 -325t-109 -326q-117 -154 -295 -154t-295 154q-108 140 -108 323q0 187 108 328zM145 459q0 -133 78 -240q84 -119 213 -119q127 0 213 119q78 107 78 240t-78 239q-86 119 -213 119q-129 0 -213 -119q-78 -106 -78 -239 z" />
<glyph unicode="p" d="M35 918h131v-103q115 125 270 125q178 0 295 -154q109 -141 109 -325t-109 -326q-116 -153 -293 -153h-2q-156 0 -272 124v-581l-127 -2zM164 408q0 -111 81 -203t189 -92q123 0 205 114q76 103 76 232q0 127 -76 231q-82 113 -205 113q-113 0 -191.5 -93.5t-78.5 -205.5 v-96z" />
<glyph unicode="q" d="M141 786q117 154 295 154q156 0 271 -125v103h131l-2 -1395l-127 2v581q-116 -124 -271 -124h-2q-178 0 -295 153q-108 140 -108 323q0 187 108 328zM158 459q0 -129 75 -232q81 -114 203 -114h2q109 0 193 94q78 90 78 201v96q0 113 -76 203q-82 96 -195 96 q-123 0 -205 -113q-76 -104 -75 -231z" />
<glyph unicode="r" horiz-adv-x="493" d="M51 0l2 924l127 -2v-111q117 125 273 125l-2 -131q-94 0 -176 -79t-93 -171q-2 -6 -2 -139q0 -76 2 -207v-209h-131z" />
<glyph unicode="s" horiz-adv-x="753" d="M29 641q0 180 118 246q88 49 285 49q166 0 285 -139l-80 -80q-55 66 -127 86q-49 16 -154 16q-109 0 -153 -33q-57 -39 -58 -143q0 -88 41 -111q23 -12 121 -18q221 -12 283 -41q129 -55 129 -233q0 -180 -123 -238q-76 -37 -281 -37q-166 0 -282 137l82 84 q59 -72 147 -92q51 -10 176 -10q86 0 125 36t39 122q0 82 -35 112q-29 25 -116 33q-98 8 -197 14q-109 12 -160 56q-66 55 -65 184z" />
<glyph unicode="t" horiz-adv-x="628" d="M20 930h162v182h131v-182h250l2 -123h-252q0 -41 -2 -201q-2 -127 -2 -198q0 -117 79 -211.5t194 -94.5l2 -131q-145 0 -273 125q-39 39 -80 109q-49 80 -49 123v479h-159z" />
<glyph unicode="u" d="M35 459v481h110l-2 -483q0 -133 78 -240q86 -117 215 -117q127 0 213 119q78 106 78 240v481h111l-2 -483q0 -182 -109 -324q-119 -156 -295 -156q-178 0 -293 156q-104 141 -104 326z" />
<glyph unicode="v" horiz-adv-x="892" d="M35 952l131 6q84 -254 254 -761q102 342 325 1022q35 100 119 239q94 158 162 203q109 74 289 74q100 0 151 -13q70 -18 131 -73q89 -80 89 -174q0 -152 -119 -152q-45 0 -84 25q-45 31 -45 73q0 25 29.5 51.5t29.5 45.5q0 55 -84 84q-60 22 -125 22h-6q-141 0 -260 -139 q-94 -113 -145 -273l-394 -1212l-127 -4z" />
<glyph unicode="w" horiz-adv-x="1486" d="M35 952l131 6q84 -254 254 -761q84 252 250 755l131 6q84 -254 254 -761q102 342 325 1022q37 100 119 239q96 160 162 203q113 74 289 74q100 0 151 -13q68 -18 131 -73q88 -78 88 -174q0 -152 -118 -152q-45 0 -84 27q-45 29 -45 71q0 25 29.5 51.5t29.5 45.5 q0 55 -84 84q-60 22 -125 22h-6q-141 0 -260 -139q-94 -113 -146 -273l-393 -1212l-127 -4l-256 764l-252 -760l-127 -4z" />
<glyph unicode="x" horiz-adv-x="995" d="M31 926l170 -2l286 -357l287 355l170 2l-401 -473l385 -451l-152 -6l-289 338l-282 -332h-172l401 451z" />
<glyph unicode="y" d="M33 461v473h125v-475q0 -129 75 -232q81 -114 203 -114h2q115 0 197 98q76 94 76 209q0 86 -2 250q-2 184 -2 248h131l-9 -920q-2 -184 -108 -326q-116 -153 -293 -153h-2l4 123q147 0 225 139q66 113 66 272v53q-114 -124 -282 -124h-3q-178 0 -295 153 q-109 141 -108 326z" />
<glyph unicode="z" horiz-adv-x="860" d="M37 68q0 25 2 47l6 -6l606 708h-612v109l782 2v-113l-604 -706l604 2v-113l-782 2z" />
<glyph unicode="{" horiz-adv-x="516" d="M53 -307l4 1618h406l2 -125l-283 -2l2 -1360l283 -2l4 -131z" />
<glyph unicode="|" horiz-adv-x="264" d="M53 -307l2 1618h131v-1620z" />
<glyph unicode="}" horiz-adv-x="516" d="M37 -309l4 131l283 2l2 1360l-283 2l2 125h406l4 -1618z" />
<glyph unicode="~" horiz-adv-x="1148" d="M78 836v24q-4 162 108 273q96 96 183 96q76 0 153 -74q61 -70 123 -137q66 -74 109 -74q47 0 108 66q84 86 74 211l115 -2v-25q4 -162 -109 -272q-96 -96 -182 -97q-76 0 -154 74q-61 70 -124.5 140.5t-108.5 70.5t-109 -63q-82 -86 -74 -213z" />
<glyph unicode="&#xa1;" horiz-adv-x="251" d="M25 874q0 41 26.5 68t67.5 27q43 0 69.5 -27t26.5 -68t-26.5 -67.5t-69.5 -26.5q-41 0 -67.5 27t-26.5 67zM59 -344l2 946h129v-946h-131z" />
<glyph unicode="&#xa2;" horiz-adv-x="753" d="M31 600q0 162 78 289q84 137 233 178v141l127 2v-133q146 -16 248 -137l-80 -80q-72 84 -168 98l2 -712q94 16 162 96l82 -82q-100 -121 -244 -137v-123h-131v133q-147 41 -231 180q-78 125 -78 287zM145 602q0 -109 50 -199q51 -96 145 -139l2 676q-94 -41 -147 -139 q-49 -88 -50 -199z" />
<glyph unicode="&#xa3;" horiz-adv-x="1146" d="M14 571v131h164v89q0 221 121 370q129 162 346 162q221 0 332 -162q94 -137 94 -370l-121 -3q2 186 -53 283q-72 121 -248 121q-170 0 -260 -121q-82 -106 -82 -283v-86l365 -2l-2 -127l-363 -2l-2 -434h776v-137h-905l2 571h-164z" />
<glyph unicode="&#xa5;" horiz-adv-x="1216" d="M31 1315l170 -2l409 -541l340 447q2 2 160 241q115 170 170 209q94 66 240 66q100 0 151 -13q70 -18 131 -73q88 -80 88 -174q0 -154 -123 -154q-43 0 -84 29.5t-41 70.5q0 25 30 51.5t30 45.5q0 55 -84 84q-63 23 -131 22q-76 0 -129 -45q-16 -14 -90 -109 q-61 -86 -187 -258l-407 -555v-104h258l-2 -127h-256v-104h258l-2 -127h-254v-195h-131v193h-271v131h271v100h-271v131h273v104z" />
<glyph unicode="&#xa8;" horiz-adv-x="684" d="M39 1548q0 49 31.5 80t79.5 31q49 0 80.5 -31t31.5 -80t-31.5 -79.5t-78.5 -30.5q-49 0 -81 30.5t-32 79.5zM428 1548q0 49 32 80t79 31q49 0 80.5 -31t31.5 -80t-31.5 -79.5t-78.5 -30.5q-49 0 -81 30.5t-32 79.5z" />
<glyph unicode="&#xa9;" horiz-adv-x="1216" d="M35 647q0 260 151 459q166 217 418 217t418 -217q152 -199 152 -459t-152 -459q-166 -217 -418 -217t-418 217q-152 199 -151 459zM111 649q0 -227 131 -409q145 -203 364 -203t365 203q131 182 131 409q0 225 -131 410q-145 201 -365 201q-219 0 -364 -201 q-131 -184 -131 -410zM205 639q0 193 112 340q123 160 308 160q152 0 268 -113l-68 -68q-92 88 -194 89q-139 0 -240 -140q-92 -127 -92 -270q0 -152 88 -272q96 -133 242 -134q111 0 198 86l66 -65q-117 -113 -268 -113q-184 0 -308 160q-113 147 -112 340z" />
<glyph unicode="&#xad;" horiz-adv-x="765" d="M55 571v131l658 -2l-2 -127z" />
<glyph unicode="&#xae;" horiz-adv-x="966" d="M43 805q0 199 119 352q127 166 319 166q193 0 320 -166q119 -153 119 -352q0 -201 -119 -352q-127 -168 -320 -168t-319 168q-119 152 -119 352zM109 807q0 -219 124 -356l3 690q57 2 122 2h152q90 0 152.5 -59.5t62.5 -149.5q0 -74 -45 -127t-117 -72l166 -284l-2 -2 l-78 -5l-166 285h-180v-280h-67q113 -121 243 -121q162 0 279 159q106 148 106 316q0 174 -102 313q-111 156 -279 156q-178 0 -282 -148q-92 -131 -92 -317zM303 797h207q63 0 104 36.5t41 98.5q0 61 -42 99t-103 38h-207v-272z" />
<glyph unicode="&#xb4;" horiz-adv-x="636" d="M-160 1419l398 330h172l-392 -330h-178z" />
<glyph unicode="&#xb8;" horiz-adv-x="290" d="M12 -317q37 -12 74 -13q37 0 72 15q43 20 43 53q0 70 -172 67v195h98v-113q72 -8 121 -41q63 -41 63 -104q0 -78 -88 -121q-70 -33 -155 -33q-27 0 -56 2v93z" />
<glyph unicode="&#xbf;" d="M57 -12q0 49 17 100q37 115 108 152q90 25 180 51q51 16 68 24q37 18 53 47v254l109 9v-342q-29 -74 -137 -95q-88 -18 -179 -34q-90 -37 -90 -154q0 -106 81 -189t186 -83q129 0 213 118q78 106 77 240l117 2q0 -184 -108 -326q-117 -154 -295 -153q-154 0 -277 112.5 t-123 266.5zM428 862q0 41 26.5 67.5t69.5 26.5q41 0 67.5 -26.5t26.5 -67.5t-26.5 -67.5t-67.5 -26.5q-43 0 -69.5 26.5t-26.5 67.5z" />
<glyph unicode="&#xc0;" horiz-adv-x="1062" d="M18 0l432 1311l127 -4l435 -1311l-132 -6l-161 497l-410 -2l-160 -491zM178 1749h172l397 -330h-178zM352 616l324 -2l-162 496z" />
<glyph unicode="&#xc1;" horiz-adv-x="1050" d="M18 0l432 1311l127 -4l435 -1311l-132 -6l-161 497l-410 -2l-160 -491zM297 1419l398 330h172l-392 -330h-178zM352 616l324 -2l-162 496z" />
<glyph unicode="&#xc2;" horiz-adv-x="1038" d="M18 0l432 1311l127 -4l435 -1311l-132 -6l-161 497l-410 -2l-160 -491zM180 1399l312 399l127 4l321 -403l-131 -6l-252 299l-246 -299zM352 616l324 -2l-162 496z" />
<glyph unicode="&#xc3;" horiz-adv-x="1034" d="M18 0l432 1311l127 -4l435 -1311l-132 -6l-161 497l-410 -2l-160 -491zM127 1417v21q-2 102 66 196q72 102 172 103q78 0 176 -116t137 -116q63 0 111 84q41 74 37 142l92 -2v-21q2 -102 -66 -197q-72 -102 -172 -102q-78 0 -176 115.5t-137 115.5q-63 0 -107.5 -78.5 t-40.5 -146.5zM352 616l324 -2l-162 496z" />
<glyph unicode="&#xc4;" horiz-adv-x="1024" d="M0 0l432 1311l127 -4l435 -1311l-132 -6l-161 497l-410 -2l-160 -491zM197 1548q0 49 31.5 80t79.5 31q49 0 80.5 -31t31.5 -80t-31.5 -79.5t-78.5 -30.5q-49 0 -81 30.5t-32 79.5zM334 616l324 -2l-162 496zM586 1548q0 49 32 80t79 31q49 0 80.5 -31t31.5 -80 t-31.5 -79.5t-78.5 -30.5q-49 0 -81 30.5t-32 79.5z" />
<glyph unicode="&#xc5;" horiz-adv-x="1032" d="M18 0l432 1311l127 -4l435 -1311l-132 -6l-161 497l-410 -2l-160 -491zM322 1642q0 102 55 173q59 78 158 77q98 0 158 -77q55 -71 55 -173t-55 -172q-59 -78 -158 -77q-98 0 -158 77q-55 70 -55 172zM352 616l324 -2l-162 496zM404 1640q0 -63 35 -110t96 -47t96 47 t35 110q0 66 -33 109q-37 51 -98 51t-98 -51q-33 -43 -33 -109z" />
<glyph unicode="&#xc6;" horiz-adv-x="1802" d="M8 0l864 1311v8h906v-137h-774v-424h733v-137h-733l-3 -484h777v-137h-777v-4l-133 -6v497l-407 -2l-322 -491zM547 616l321 -2l2 496z" />
<glyph unicode="&#xc7;" horiz-adv-x="1015" d="M35 647q0 260 151 459q166 217 418 217q203 0 361 -154l-91 -90q-119 113 -266 113q-197 0 -325 -180q-119 -164 -119 -367q0 -197 123 -366q135 -188 323 -189q141 0 267 123l88 -88q-141 -139 -326 -152v-86q72 -8 121 -41q63 -41 63 -104q0 -78 -88 -121 q-70 -33 -155 -33q-27 0 -56 2v93q39 -12 74 -13q37 0 72 15q43 20 43 53q0 72 -172 67v170q-229 31 -373 240q-133 193 -133 432z" />
<glyph unicode="&#xc8;" horiz-adv-x="964" d="M4 0v1319h905v-137h-774v-424h733v-137h-733l-2 -484h776v-137h-905zM146 1749h172l397 -330h-178z" />
<glyph unicode="&#xc9;" horiz-adv-x="956" d="M2 0v1319h905v-137h-774v-424h733v-137h-733l-2 -484h776v-137h-905zM262 1419l398 330h172l-392 -330h-178z" />
<glyph unicode="&#xca;" horiz-adv-x="966" d="M6 0v1319h905v-137h-774v-424h733v-137h-733l-2 -484h776v-137h-905zM149 1399l312 399l127 4l321 -403l-131 -6l-252 299l-246 -299z" />
<glyph unicode="&#xcb;" horiz-adv-x="757" d="M-12 0v1319h905v-137h-774v-424h733v-137h-733l-2 -484h776v-137h-905zM166 1548q0 49 31.5 80t79.5 31q49 0 80.5 -31t31.5 -80t-31.5 -79.5t-78.5 -30.5q-49 0 -81 30.5t-32 79.5zM555 1548q0 49 32 80t79 31q49 0 80.5 -31t31.5 -80t-31.5 -79.5t-78.5 -30.5 q-49 0 -81 30.5t-32 79.5z" />
<glyph unicode="&#xcc;" horiz-adv-x="329" d="M-184 1749h172l397 -330h-178zM101 0l2 1311l127 2l2 -1313h-131z" />
<glyph unicode="&#xcd;" horiz-adv-x="272" d="M47 0l2 1311l127 2l2 -1313h-131zM65 1419l398 330h172l-392 -330h-178z" />
<glyph unicode="&#xce;" horiz-adv-x="339" d="M-191 1399l312 399l127 4l321 -403l-131 -6l-252 299l-246 -299zM113 0l2 1311l127 2l2 -1313h-131z" />
<glyph unicode="&#xcf;" horiz-adv-x="389" d="M-94 1548q0 49 31.5 80t79.5 31q49 0 80.5 -31t31.5 -80t-31.5 -79.5t-78.5 -30.5q-49 0 -81 30.5t-32 79.5zM154 0l2 1311l127 2l2 -1313h-131zM295 1548q0 49 32 80t79 31q49 0 80.5 -31t31.5 -80t-31.5 -79.5t-78.5 -30.5q-49 0 -81 30.5t-32 79.5z" />
<glyph unicode="&#xd0;" horiz-adv-x="1181" d="M55 571v131h123v609q131 2 377 2q252 0 420 -211q158 -197 158 -455q0 -260 -154 -446q-164 -201 -418 -201h-385v571h-121zM305 125h260q197 0 326 164q121 153 121 356q0 201 -123 363q-133 174 -330 174h-254v-482h141l-2 -127h-139v-448z" />
<glyph unicode="&#xd1;" horiz-adv-x="1044" d="M33 1311l127 2l669 -1071v989q0 63 50 143q45 63 90 127q92 129 184 179.5t246 50.5q100 0 151 -15q70 -16 131 -71q89 -81 89 -175q0 -154 -119 -153q-45 0 -84 26q-45 31 -45 74q0 23 29.5 50.5t29.5 45.5q0 53 -84 84q-63 23 -131 23q-152 0 -264 -127 q-141 -162 -141 -266v-1227h-152v6l-649 1055l4 -1061h-129zM115 1417v21q-2 102 66 196q72 102 172 103q78 0 176 -116t137 -116q63 0 111 84q41 74 37 142l92 -2v-21q2 -102 -66 -197q-72 -102 -172 -102q-78 0 -176 115.5t-137 115.5q-63 0 -107.5 -78.5t-40.5 -146.5z " />
<glyph unicode="&#xd2;" horiz-adv-x="1191" d="M29 647q0 260 151 459q166 217 418 217t418 -217q152 -199 152 -459t-152 -459q-166 -217 -418 -217t-418 217q-152 199 -151 459zM158 645q0 -205 119 -369q129 -180 325 -180q197 0 326 180q119 164 119 369q0 203 -119 367q-129 180 -326 180t-325 -180 q-119 -164 -119 -367zM160 1749h172l397 -330h-178z" />
<glyph unicode="&#xd3;" horiz-adv-x="1191" d="M29 647q0 260 151 459q166 217 418 217t418 -217q152 -199 152 -459t-152 -459q-166 -217 -418 -217t-418 217q-152 199 -151 459zM158 645q0 -205 119 -369q129 -180 325 -180q197 0 326 180q119 164 119 369q0 203 -119 367q-129 180 -326 180t-325 -180 q-119 -164 -119 -367zM278 1419l398 330h172l-392 -330h-178z" />
<glyph unicode="&#xd4;" horiz-adv-x="1224" d="M29 647q0 260 151 459q166 217 418 217t418 -217q152 -199 152 -459t-152 -459q-166 -217 -418 -217t-418 217q-152 199 -151 459zM158 645q0 -205 119 -369q129 -180 325 -180q197 0 326 180q119 164 119 369q0 203 -119 367q-129 180 -326 180t-325 -180 q-119 -164 -119 -367zM223 1399l312 399l127 4l321 -403l-131 -6l-252 299l-246 -299z" />
<glyph unicode="&#xd5;" horiz-adv-x="1212" d="M35 647q0 260 151 459q166 217 418 217t418 -217q152 -199 152 -459t-152 -459q-166 -217 -418 -217t-418 217q-152 199 -151 459zM164 645q0 -205 119 -369q129 -180 325 -180q197 0 326 180q119 164 119 369q0 203 -119 367q-129 180 -326 180t-325 -180 q-119 -164 -119 -367zM217 1417v21q-2 102 66 196q72 102 172 103q78 0 176 -116t137 -116q63 0 111 84q41 74 37 142l92 -2v-21q2 -102 -66 -197q-72 -102 -172 -102q-78 0 -176 115.5t-137 115.5q-63 0 -107.5 -78.5t-40.5 -146.5z" />
<glyph unicode="&#xd6;" horiz-adv-x="1220" d="M19 647q0 260 151 459q166 217 418 217t418 -217q152 -199 152 -459t-152 -459q-166 -217 -418 -217t-418 217q-152 199 -151 459zM148 645q0 -205 119 -369q129 -180 325 -180q197 0 326 180q119 164 119 369q0 203 -119 367q-129 180 -326 180t-325 -180 q-119 -164 -119 -367zM289 1548q0 49 31.5 80t79.5 31q49 0 80.5 -31t31.5 -80t-31.5 -79.5t-78.5 -30.5q-49 0 -81 30.5t-32 79.5zM678 1548q0 49 32 80t79 31q49 0 80.5 -31t31.5 -80t-31.5 -79.5t-78.5 -30.5q-49 0 -81 30.5t-32 79.5z" />
<glyph unicode="&#xd8;" horiz-adv-x="1216" d="M39 643q0 270 145 465q160 215 420 215q109 0 207 -47l86 141l147 2l-124 -209q250 -199 249 -561q0 -268 -145 -463q-160 -215 -420 -215q-193 0 -344 138l-65 -109h-152l127 211q-131 184 -131 432zM170 633q0 -166 74 -297l499 829q-76 31 -149 31q-195 0 -318 -190 q-106 -168 -106 -373zM328 223q129 -133 276 -133q188 0 324 186q125 172 125 369q0 287 -201 455z" />
<glyph unicode="&#xd9;" horiz-adv-x="1181" d="M35 647v676h129v-678q0 -205 108 -366q121 -182 316 -183q195 0 315 185q106 162 107 366v676h129v-678q0 -260 -146 -457q-160 -217 -409 -217q-250 0 -408 219q-141 197 -141 457zM170 1749h172l397 -330h-178z" />
<glyph unicode="&#xda;" horiz-adv-x="1181" d="M35 647v676h129v-678q0 -205 108 -366q121 -182 316 -183q195 0 315 185q106 162 107 366v676h129v-678q0 -260 -146 -457q-160 -217 -409 -217q-250 0 -408 219q-141 197 -141 457zM289 1419l398 330h172l-392 -330h-178z" />
<glyph unicode="&#xdb;" horiz-adv-x="1173" d="M35 647v676h129v-678q0 -205 108 -366q121 -182 316 -183q195 0 315 185q106 162 107 366v676h129v-678q0 -260 -146 -457q-160 -217 -409 -217q-250 0 -408 219q-141 197 -141 457zM213 1399l312 399l127 4l321 -403l-131 -6l-252 299l-246 -299z" />
<glyph unicode="&#xdc;" horiz-adv-x="1167" d="M23 647v676h129v-678q0 -205 108 -366q121 -182 316 -183q195 0 315 185q106 162 107 366v676h129v-678q0 -260 -146 -457q-160 -217 -409 -217q-250 0 -408 219q-141 197 -141 457zM297 1548q0 49 31.5 80t79.5 31q49 0 80.5 -31t31.5 -80t-31.5 -79.5t-78.5 -30.5 q-49 0 -81 30.5t-32 79.5zM686 1548q0 49 32 80t79 31q49 0 80.5 -31t31.5 -80t-31.5 -79.5t-78.5 -30.5q-49 0 -81 30.5t-32 79.5z" />
<glyph unicode="&#xdd;" horiz-adv-x="1136" d="M21 1315l170 -2l409 -541l340 447q2 2 160 241q115 170 170 209q94 66 240 66q100 0 151 -13q70 -18 131 -73q88 -80 88 -174q0 -154 -123 -154q-43 0 -84 29.5t-41 70.5q0 25 30 51.5t30 45.5q0 55 -84 84q-63 23 -131 22q-76 0 -129 -45q-16 -14 -90 -109 q-61 -86 -187 -258l-407 -555l2 -657h-131l2 659zM276 1419l398 330h172l-392 -330h-178z" />
<glyph unicode="&#xde;" horiz-adv-x="1073" d="M74 0l2 1319h129v-252l98 2l293 -2q162 0 287 -115.5t125 -275.5t-125 -274.5t-287 -114.5h-391v-287h-131zM205 412h391q109 0 195 76t86 182t-86 183t-195 77h-391v-518z" />
<glyph unicode="&#xdf;" horiz-adv-x="942" d="M39 -236v1301q0 80 166 141q137 53 235 54q190 0 314 -78q143 -95 143 -275q0 -182 -152 -284q147 -104 148 -285q0 -354 -404 -354q-166 0 -284 139l98 102q84 -104 182 -104q139 0 197 37q74 49 74 178q0 113 -82 170q-74 53 -189 53q-41 0 -82 -8l5 143 q49 -16 100 -16q106 0 179 64.5t73 166.5q0 129 -107 178q-72 35 -219 35q-90 0 -174 -37q-106 -45 -106 -122v-1199h-115z" />
<glyph unicode="&#xe0;" horiz-adv-x="864" d="M15 457q0 184 108 325q117 154 295 154q156 0 273 -125v111l126 2l3 -924h-132v102q-115 -125 -270 -125q-178 0 -295 154q-109 141 -108 326zM140 459q0 -127 75 -232q82 -113 205 -112q92 0 174 77.5t94 169.5q6 41 7 99q0 55 -7 94q-10 92 -92 171t-176 79 q-123 0 -205 -115q-76 -102 -75 -231zM226 1413h172l397 -330h-178z" />
<glyph unicode="&#xe1;" horiz-adv-x="860" d="M19 457q0 184 108 325q117 154 295 154q156 0 273 -125v111l126 2l3 -924h-132v102q-115 -125 -270 -125q-178 0 -295 154q-109 141 -108 326zM144 459q0 -127 75 -232q82 -113 205 -112q92 0 174 77.5t94 169.5q6 41 7 99q0 55 -7 94q-10 92 -92 171t-176 79 q-123 0 -205 -115q-76 -102 -75 -231zM266 1083l398 330h172l-392 -330h-178z" />
<glyph unicode="&#xe2;" horiz-adv-x="894" d="M15 457q0 184 108 325q117 154 295 154q156 0 273 -125v111l126 2l3 -924h-132v102q-115 -125 -270 -125q-178 0 -295 154q-109 141 -108 326zM104 1063l312 399l127 4l321 -403l-131 -6l-252 299l-246 -299zM140 459q0 -127 75 -232q82 -113 205 -112q92 0 174 77.5 t94 169.5q6 41 7 99q0 55 -7 94q-10 92 -92 171t-176 79q-123 0 -205 -115q-76 -102 -75 -231z" />
<glyph unicode="&#xe3;" horiz-adv-x="888" d="M11 457q0 184 108 325q117 154 295 154q156 0 273 -125v111l126 2l3 -924h-132v102q-115 -125 -270 -125q-178 0 -295 154q-109 141 -108 326zM108 1081v21q-2 102 66 196q72 102 172 103q78 0 176 -116t137 -116q63 0 111 84q41 74 37 142l92 -2v-21q2 -102 -66 -197 q-72 -102 -172 -102q-78 0 -176 115.5t-137 115.5q-63 0 -107.5 -78.5t-40.5 -146.5zM136 459q0 -127 75 -232q82 -113 205 -112q92 0 174 77.5t94 169.5q6 41 7 99q0 55 -7 94q-10 92 -92 171t-176 79q-123 0 -205 -115q-76 -102 -75 -231z" />
<glyph unicode="&#xe4;" horiz-adv-x="835" d="M-2 457q0 184 108 325q117 154 295 154q156 0 273 -125v111l126 2l3 -924h-132v102q-115 -125 -270 -125q-178 0 -295 154q-109 141 -108 326zM102 1212q0 49 31.5 80t79.5 31q49 0 80.5 -31t31.5 -80t-31.5 -79.5t-78.5 -30.5q-49 0 -81 30.5t-32 79.5zM123 459 q0 -127 75 -232q82 -113 205 -112q92 0 174 77.5t94 169.5q6 41 7 99q0 55 -7 94q-10 92 -92 171t-176 79q-123 0 -205 -115q-76 -102 -75 -231zM491 1212q0 49 32 80t79 31q49 0 80.5 -31t31.5 -80t-31.5 -79.5t-78.5 -30.5q-49 0 -81 30.5t-32 79.5z" />
<glyph unicode="&#xe5;" horiz-adv-x="884" d="M27 457q0 184 108 325q117 154 295 154q156 0 273 -125v111l126 2l3 -924h-132v102q-115 -125 -270 -125q-178 0 -295 154q-109 141 -108 326zM152 459q0 -127 75 -232q82 -113 205 -112q92 0 174 77.5t94 169.5q6 41 7 99q0 55 -7 94q-10 92 -92 171t-176 79 q-123 0 -205 -115q-76 -102 -75 -231zM303 1228q0 102 55 173q59 78 158 77q98 0 158 -77q55 -71 55 -173t-55 -172q-59 -78 -158 -77q-98 0 -158 77q-55 70 -55 172zM385 1226q0 -63 35 -110t96 -47t96 47t35 110q0 66 -33 109q-37 51 -98 51t-98 -51q-33 -43 -33 -109z " />
<glyph unicode="&#xe6;" horiz-adv-x="1556" d="M29 457q0 184 108 325q117 154 295 154q156 0 273 -125v111l126 2v-119q119 133 275 133q160 0 276 -129q109 -121 121 -285q4 -49 4 -129l-673 2l-3 -14q-2 -111 85.5 -195t199.5 -84q109 0 187 89l83 -82q-117 -131 -278 -131q-160 0 -274 126v-106h-132v102 q-115 -125 -270 -125q-178 0 -295 154q-109 141 -108 326zM154 459q0 -127 75 -232q82 -113 205 -112q92 0 174 77.5t94 169.5q6 41 7 99q0 55 -7 94q-10 92 -92 171t-176 79q-123 0 -205 -115q-76 -102 -75 -231zM831 524h566q-18 117 -92 201q-82 92 -193 92 q-104 0 -194.5 -89t-86.5 -189v-15z" />
<glyph unicode="&#xe7;" horiz-adv-x="753" d="M33 455q0 193 100 329q113 152 299 152q166 0 285 -139l-80 -80q-86 100 -201 100q-129 0 -213 -119q-78 -106 -78 -239q0 -129 82 -240q88 -123 213 -123q104 0 193 103l82 -82q-109 -127 -260 -137v-93q72 -8 120 -41q63 -41 64 -104q0 -78 -88 -121q-68 -33 -156 -33 q-27 0 -55 2v93q39 -12 74 -13q37 0 71 15q43 20 43 53q0 70 -172 67v181q-156 37 -243 174q-80 127 -80 295z" />
<glyph unicode="&#xe8;" horiz-adv-x="854" d="M6 457q0 184 108 325q117 154 295 154q166 0 277 -125q104 -117 118 -287q4 -49 4 -129l-681 2q18 -115 96 -202q84 -96 194 -97q102 0 187 95l84 -82q-123 -139 -273 -140q-172 0 -295 160q-115 147 -114 326zM127 524h571q-18 121 -90 201q-80 90 -195 90 q-117 0 -196 -90q-70 -80 -90 -201zM207 1413h172l397 -330h-178z" />
<glyph unicode="&#xe9;" horiz-adv-x="837" d="M6 457q0 184 108 325q117 154 295 154q166 0 277 -125q104 -117 118 -287q4 -49 4 -129l-681 2q18 -115 96 -202q84 -96 194 -97q102 0 187 95l84 -82q-123 -139 -273 -140q-172 0 -295 160q-115 147 -114 326zM127 524h571q-18 121 -90 201q-80 90 -195 90 q-117 0 -196 -90q-70 -80 -90 -201zM264 1083l398 330h172l-392 -330h-178z" />
<glyph unicode="&#xea;" horiz-adv-x="854" d="M9 457q0 184 108 325q117 154 295 154q166 0 277 -125q104 -117 118 -287q4 -49 4 -129l-681 2q18 -115 96 -202q84 -96 194 -97q102 0 187 95l84 -82q-123 -139 -273 -140q-172 0 -295 160q-115 147 -114 326zM67 1063l312 399l127 4l321 -403l-131 -6l-252 299 l-246 -299zM130 524h571q-18 121 -90 201q-80 90 -195 90q-117 0 -196 -90q-70 -80 -90 -201z" />
<glyph unicode="&#xeb;" horiz-adv-x="819" d="M-12 457q0 184 108 325q117 154 295 154q166 0 277 -125q104 -117 118 -287q4 -49 4 -129l-681 2q18 -115 96 -202q84 -96 194 -97q102 0 187 95l84 -82q-123 -139 -273 -140q-172 0 -295 160q-115 147 -114 326zM102 1212q0 49 31.5 80t79.5 31q49 0 80.5 -31t31.5 -80 t-31.5 -79.5t-78.5 -30.5q-49 0 -81 30.5t-32 79.5zM109 524h571q-18 121 -90 201q-80 90 -195 90q-117 0 -196 -90q-70 -80 -90 -201zM491 1212q0 49 32 80t79 31q49 0 80.5 -31t31.5 -80t-31.5 -79.5t-78.5 -30.5q-49 0 -81 30.5t-32 79.5z" />
<glyph unicode="&#xec;" horiz-adv-x="307" d="M-43 1413h172l397 -330h-178zM90 0l2 946h129v-946h-131z" />
<glyph unicode="&#xed;" horiz-adv-x="262" d="M30 1083l398 330h172l-392 -330h-178zM45 0l2 946h129v-946h-131z" />
<glyph unicode="&#xee;" horiz-adv-x="299" d="M-224 1063l312 399l127 4l321 -403l-131 -6l-252 299l-246 -299zM92 0l2 946h129v-946h-131z" />
<glyph unicode="&#xef;" horiz-adv-x="337" d="M-102 1212q0 49 31.5 80t79.5 31q49 0 80.5 -31t31.5 -80t-31.5 -79.5t-78.5 -30.5q-49 0 -81 30.5t-32 79.5zM117 0l2 946h129v-946h-131zM287 1212q0 49 32 80t79 31q49 0 80.5 -31t31.5 -80t-31.5 -79.5t-78.5 -30.5q-49 0 -81 30.5t-32 79.5z" />
<glyph unicode="&#xf0;" horiz-adv-x="1017" d="M31 362q0 182 108 316q117 141 295 141q170 0 285 -123v52q2 119 -27 190l-350 -55v131l276 43q-90 96 -206 96l12 121q209 0 328 -197l247 39l-2 -129l-192 -31q20 -74 22 -151l7 -481q0 -41 -50 -123q-43 -74 -79 -113q-123 -127 -289 -127t-275.5 117t-109.5 284z M156 365q0 -123 76.5 -194t203.5 -71q115 0 193 96.5t78 213.5q0 113 -79 196.5t-192 83.5q-121 0 -205 -104q-76 -96 -75 -221z" />
<glyph unicode="&#xf1;" horiz-adv-x="870" d="M23 0l2 944l127 -2v-131q119 127 268 127q170 0 293 -143q115 -135 115 -308q0 -104 -102.5 -276t-102.5 -277q0 -117 83 -194.5t202 -77.5q193 0 192 115q0 18 -28.5 45.5t-28.5 50.5q0 43 43 74q39 25 84 24q121 1 121 -151q0 -274 -408 -275q-262 0 -360 242 q-35 84 -35 162q0 123 57 231q2 4 103 160q57 86 57 158q0 121 -80 213t-199 92q-168 0 -256 -197q-16 -37 -16 -51v-555h-131zM102 1081v21q-2 102 66 196q72 102 172 103q78 0 176 -116t137 -116q63 0 111 84q41 74 37 142l92 -2v-21q2 -102 -66 -197q-72 -102 -172 -102 q-78 0 -176 115.5t-137 115.5q-63 0 -107.5 -78.5t-40.5 -146.5z" />
<glyph unicode="&#xf2;" horiz-adv-x="866" d="M15 457q0 184 108 325q117 154 295 154t295 -154q109 -141 109 -325t-109 -326q-117 -154 -295 -154t-295 154q-109 141 -108 326zM131 459q0 -133 78 -240q84 -119 213 -119q127 0 213 119q78 107 78 240t-78 239q-86 119 -213 119q-129 0 -213 -119q-78 -106 -78 -239z M197 1413h172l397 -330h-178z" />
<glyph unicode="&#xf3;" horiz-adv-x="854" d="M13 457q0 184 108 325q117 154 295 154t295 -154q109 -141 109 -325t-109 -326q-117 -154 -295 -154t-295 154q-109 141 -108 326zM129 459q0 -133 78 -240q84 -119 213 -119q127 0 213 119q78 107 78 240t-78 239q-86 119 -213 119q-129 0 -213 -119q-78 -106 -78 -239z M272 1083l398 330h172l-392 -330h-178z" />
<glyph unicode="&#xf4;" horiz-adv-x="860" d="M15 457q0 184 108 325q117 154 295 154t295 -154q109 -141 109 -325t-109 -326q-117 -154 -295 -154t-295 154q-109 141 -108 326zM55 1063l312 399l127 4l321 -403l-131 -6l-252 299l-246 -299zM131 459q0 -133 78 -240q84 -119 213 -119q127 0 213 119q78 107 78 240 t-78 239q-86 119 -213 119q-129 0 -213 -119q-78 -106 -78 -239z" />
<glyph unicode="&#xf5;" horiz-adv-x="870" d="M17 457q0 184 108 325q117 154 295 154t295 -154q109 -141 109 -325t-109 -326q-117 -154 -295 -154t-295 154q-109 141 -108 326zM65 1081v21q-2 102 66 196q72 102 172 103q78 0 176 -116t137 -116q63 0 111 84q41 74 37 142l92 -2v-21q2 -102 -66 -197 q-72 -102 -172 -102q-78 0 -176 115.5t-137 115.5q-63 0 -107.5 -78.5t-40.5 -146.5zM133 459q0 -133 78 -240q84 -119 213 -119q127 0 213 119q78 107 78 240t-78 239q-86 119 -213 119q-129 0 -213 -119q-78 -106 -78 -239z" />
<glyph unicode="&#xf6;" horiz-adv-x="841" d="M9 457q0 184 108 325q117 154 295 154t295 -154q109 -141 109 -325t-109 -326q-117 -154 -295 -154t-295 154q-109 141 -108 326zM125 459q0 -133 78 -240q84 -119 213 -119q127 0 213 119q78 107 78 240t-78 239q-86 119 -213 119q-129 0 -213 -119q-78 -106 -78 -239z M125 1212q0 49 31.5 80t79.5 31q49 0 80.5 -31t31.5 -80t-31.5 -79.5t-78.5 -30.5q-49 0 -81 30.5t-32 79.5zM514 1212q0 49 32 80t79 31q49 0 80.5 -31t31.5 -80t-31.5 -79.5t-78.5 -30.5q-49 0 -81 30.5t-32 79.5z" />
<glyph unicode="&#xf8;" d="M31 449q0 182 102 327q115 164 291 164q74 0 151 -35l62 105l147 2l-104 -178q152 -139 151 -381q0 -193 -102 -326q-111 -150 -297 -150q-113 0 -209 70l-28 -47h-152l84 143q-96 133 -96 306zM152 449q0 -109 45 -189l317 543q-47 18 -92 18q-127 0 -205 -127 q-66 -109 -65 -245zM285 154q74 -57 153 -58q125 0 211 127q78 113 78 244q0 155 -106 266z" />
<glyph unicode="&#xf9;" horiz-adv-x="854" d="M25 459v481h110l-2 -483q0 -133 78 -240q86 -117 215 -117q127 0 213 119q78 106 78 240v481h111l-2 -483q0 -182 -109 -324q-119 -156 -295 -156q-178 0 -293 156q-104 141 -104 326zM199 1413h172l397 -330h-178z" />
<glyph unicode="&#xfa;" horiz-adv-x="837" d="M6 459v481h110l-2 -483q0 -133 78 -240q86 -117 215 -117q127 0 213 119q78 106 78 240v481h111l-2 -483q0 -182 -109 -324q-119 -156 -295 -156q-178 0 -293 156q-104 141 -104 326zM237 1083l398 330h172l-392 -330h-178z" />
<glyph unicode="&#xfb;" horiz-adv-x="860" d="M25 459v481h110l-2 -483q0 -133 78 -240q86 -117 215 -117q127 0 213 119q78 106 78 240v481h111l-2 -483q0 -182 -109 -324q-119 -156 -295 -156q-178 0 -293 156q-104 141 -104 326zM57 1063l312 399l127 4l321 -403l-131 -6l-252 299l-246 -299z" />
<glyph unicode="&#xfc;" horiz-adv-x="899" d="M41 459v481h110l-2 -483q0 -133 78 -240q86 -117 215 -117q127 0 213 119q78 106 78 240v481h111l-2 -483q0 -182 -109 -324q-119 -156 -295 -156q-178 0 -293 156q-104 141 -104 326zM150 1212q0 49 31.5 80t79.5 31q49 0 80.5 -31t31.5 -80t-31.5 -79.5t-78.5 -30.5 q-49 0 -81 30.5t-32 79.5zM539 1212q0 49 32 80t79 31q49 0 80.5 -31t31.5 -80t-31.5 -79.5t-78.5 -30.5q-49 0 -81 30.5t-32 79.5z" />
<glyph unicode="&#xfd;" horiz-adv-x="864" d="M21 461v473h125v-475q0 -129 75 -232q82 -115 205 -114q115 0 197 98q76 94 76 209q0 86 -2 250q-2 184 -2 248h131l-9 -920q-2 -184 -108 -326q-117 -154 -295 -153l4 123q147 0 225 139q66 113 66 272v53q-115 -125 -285 -124q-178 0 -295 153q-109 141 -108 326z M317 1083l398 330h172l-392 -330h-178z" />
<glyph unicode="&#xfe;" d="M35 1307h131v-492q115 125 270 125q178 0 295 -154q109 -141 109 -325t-109 -326q-117 -154 -295 -153q-156 0 -272 124v-581l-127 -2zM164 408q0 -111 81 -203t189 -92q123 0 205 114q76 103 76 232q0 127 -76 231q-82 113 -205 113q-113 0 -191.5 -93.5t-78.5 -205.5 v-96z" />
<glyph unicode="&#xff;" horiz-adv-x="837" d="M13 461v473h125v-475q0 -129 75 -232q82 -115 205 -114q115 0 197 98q76 94 76 209q0 86 -2 250q-2 184 -2 248h131l-9 -920q-2 -184 -108 -326q-117 -154 -295 -153l4 123q147 0 225 139q66 113 66 272v53q-115 -125 -285 -124q-178 0 -295 153q-109 141 -108 326z M125 1212q0 49 31.5 80t79.5 31q49 0 80.5 -31t31.5 -80t-31.5 -79.5t-78.5 -30.5q-49 0 -81 30.5t-32 79.5zM514 1212q0 49 32 80t79 31q49 0 80.5 -31t31.5 -80t-31.5 -79.5t-78.5 -30.5q-49 0 -81 30.5t-32 79.5z" />
<glyph unicode="&#x152;" horiz-adv-x="2007" d="M35 647q0 258 160 463q172 219 423 219q264 0 439 -272v262h905v-137h-774v-424h733v-137h-733l-2 -484h776v-137h-905v238q-174 -272 -439 -273q-252 0 -423 219q-160 205 -160 463zM164 645q0 -205 119 -369q129 -180 325 -180q197 0 326 180q119 164 119 369 q0 203 -119 367q-129 180 -326 180t-325 -180q-119 -164 -119 -367z" />
<glyph unicode="&#x153;" horiz-adv-x="1550" d="M29 457q0 184 114 327q121 154 301 154q217 0 336 -240q117 238 346 238q166 0 279 -125q104 -117 119 -287q4 -47 4 -129l-682 2q18 -115 96 -202q84 -96 195 -97q102 0 186 95l84 -82q-117 -133 -274 -134q-113 0 -207.5 67t-145.5 171q-119 -240 -336 -240 q-180 0 -301 154q-115 143 -114 328zM145 459q0 -133 78 -240q84 -119 213 -119t213 121q78 107 78 242q0 131 -78 237q-86 117 -213 117q-129 0 -213 -119q-78 -106 -78 -239zM846 524h571q-18 121 -90 201q-80 90 -194 90q-117 0 -197 -90q-70 -80 -90 -201z" />
<glyph unicode="&#x178;" horiz-adv-x="1050" d="M8 1315l170 -2l409 -541l340 447q2 2 160 241q115 170 170 209q94 66 240 66q100 0 151 -13q70 -18 131 -73q88 -80 88 -174q0 -154 -123 -154q-43 0 -84 29.5t-41 70.5q0 25 30 51.5t30 45.5q0 55 -84 84q-63 23 -131 22q-76 0 -129 -45q-16 -14 -90 -109 q-61 -86 -187 -258l-407 -555l2 -657h-131l2 659zM285 1548q0 49 31.5 80t79.5 31q49 0 80.5 -31t31.5 -80t-31.5 -79.5t-78.5 -30.5q-49 0 -81 30.5t-32 79.5zM674 1548q0 49 32 80t79 31q49 0 80.5 -31t31.5 -80t-31.5 -79.5t-78.5 -30.5q-49 0 -81 30.5t-32 79.5z" />
<glyph unicode="&#x2c6;" horiz-adv-x="860" d="M-25 1399l312 399l127 4l321 -403l-131 -6l-252 299l-246 -299z" />
<glyph unicode="&#x2dc;" horiz-adv-x="894" d="M-35 1417v21q-2 102 66 196q72 102 172 103q78 0 176 -116t137 -116q63 0 111 84q41 74 37 142l92 -2v-21q2 -102 -66 -197q-72 -102 -172 -102q-78 0 -176 115.5t-137 115.5q-63 0 -107.5 -78.5t-40.5 -146.5z" />
<glyph unicode="&#x2000;" horiz-adv-x="946" />
<glyph unicode="&#x2001;" horiz-adv-x="1892" />
<glyph unicode="&#x2002;" horiz-adv-x="946" />
<glyph unicode="&#x2003;" horiz-adv-x="1892" />
<glyph unicode="&#x2004;" horiz-adv-x="630" />
<glyph unicode="&#x2005;" horiz-adv-x="473" />
<glyph unicode="&#x2006;" horiz-adv-x="315" />
<glyph unicode="&#x2007;" horiz-adv-x="315" />
<glyph unicode="&#x2008;" horiz-adv-x="236" />
<glyph unicode="&#x2009;" horiz-adv-x="378" />
<glyph unicode="&#x200a;" horiz-adv-x="105" />
<glyph unicode="&#x2010;" horiz-adv-x="765" d="M55 571v131l658 -2l-2 -127z" />
<glyph unicode="&#x2011;" horiz-adv-x="765" d="M55 571v131l658 -2l-2 -127z" />
<glyph unicode="&#x2012;" horiz-adv-x="765" d="M55 571v131l658 -2l-2 -127z" />
<glyph unicode="&#x2013;" horiz-adv-x="1131" d="M55 571v131l1024 -2l-3 -127z" />
<glyph unicode="&#x2014;" horiz-adv-x="1255" d="M29 573v132l1181 -5l-2 -127h-1179z" />
<glyph unicode="&#x2018;" horiz-adv-x="364" d="M63 1073q0 106 79 189.5t186 83.5v-54q-51 0 -84 -41t-33 -94q0 -20 50 -55t50 -62q0 -43 -41 -71.5t-84 -28.5q-123 0 -123 133z" />
<glyph unicode="&#x2019;" horiz-adv-x="346" d="M39 934v53q51 0 84 41t33 94q0 20 -50.5 55t-50.5 62q0 43 41 71.5t84 28.5q123 0 123 -133q0 -106 -79 -189t-185 -83z" />
<glyph unicode="&#x201c;" horiz-adv-x="659" d="M63 1073q0 106 79 189.5t186 83.5v-54q-51 0 -84 -41t-33 -94q0 -20 50 -55t50 -62q0 -43 -41 -71.5t-84 -28.5q-123 0 -123 133zM371 1073q0 106 78.5 189.5t185.5 83.5v-54q-51 0 -84 -41t-33 -94q0 -20 50 -55t50 -62q0 -43 -40.5 -71.5t-83.5 -28.5q-123 0 -123 133z " />
<glyph unicode="&#x201d;" horiz-adv-x="659" d="M39 934v53q51 0 84 41t33 94q0 20 -50.5 55t-50.5 62q0 43 41 71.5t84 28.5q123 0 123 -133q0 -106 -79 -189t-185 -83zM346 934v53q51 0 84 41t33 94q0 20 -50.5 55t-50.5 62q0 43 41 71.5t84 28.5q123 0 123 -133q0 -106 -78.5 -189t-185.5 -83z" />
<glyph unicode="&#x2026;" horiz-adv-x="1280" d="M16 113q0 47 32 77.5t81 30.5q47 0 79 -30.5t32 -77.5q0 -49 -32 -80t-81 -31q-47 0 -79 30.5t-32 80.5zM508 113q0 47 31.5 77.5t81.5 30.5q47 0 78.5 -30.5t31.5 -77.5q0 -49 -31.5 -80t-81.5 -31q-47 0 -78.5 30.5t-31.5 80.5zM999 113q0 47 32 77.5t81 30.5 q47 0 79 -30.5t32 -77.5q0 -49 -32 -80t-81 -31q-47 0 -79 30.5t-32 80.5z" />
<glyph unicode="&#x202f;" horiz-adv-x="378" />
<glyph unicode="&#x205f;" horiz-adv-x="473" />
<glyph unicode="&#x25fc;" horiz-adv-x="921" d="M0 0v922h922v-922h-922z" />
</font>
</defs>
</svg>
